Loading...
Error

(Авторская песня) Русь небесная - 2008, APE (image + .cue), lossless

Ответить на тему
Статистика раздачи
Скачали: [ 4 ]
   
 
Автор Сообщение

Владислав

post 07-Ноя-2009 15:10

[Цитировать] 

Русь небесная

pic
Страна: Россия
Жанр: Авторская песня
Год выпуска: 2008
Формат: APE (image + .cue)
Битрейт аудио: lossless
Продолжительность: 40:30
Трэклист:
Артист: архидиакон Роман (Тамберг) и иерей Алексий Грачёв
Альбом: Русь небесная
==========================================
01 - архидиакон Роман (Тамберг) и иерей Алексий Грачёв - Молитва 0:36
02 - архидиакон Роман (Тамберг) и иерей Алексий Грачёв - Крылья 5:30
03 - архидиакон Роман (Тамберг) и иерей Алексий Грачёв - Тебя призываю,Пречистая Дева 5:53
04 - архидиакон Роман (Тамберг) и иерей Алексий Грачёв - Птицы 4:31
05 - архидиакон Роман (Тамберг) и иерей Алексий Грачёв - Паломничество 2:59
06 - архидиакон Роман (Тамберг) и иерей Алексий Грачёв - Дорога 2:56
07 - архидиакон Роман (Тамберг) и иерей Алексий Грачёв - Принимай гостей,Москва 5:09
08 - архидиакон Роман (Тамберг) и иерей Алексий Грачёв - Чижичек 3:36
09 - архидиакон Роман (Тамберг) и иерей Алексий Грачёв - Пюхтицы 5:06
10 - архидиакон Роман (Тамберг) и иерей Алексий Грачёв - Вечная память 4:14
EAC log
Exact Audio Copy V0.99 prebeta 5 from 4. May 2009

Exact Audio Copy V0.99 prebeta 5 from 4. May 2009

Отчёт EAC об извлечении, выполненном 5. ноября 2009, 1:12

архидиакон Роман (Тамберг) и иерей Алексий Грачёв / Русь небесная

Дисковод: Optiarc DVD RW AD-7191S Adapter: 4 ID: 0

Режим чтения : Достоверность
Использование точного потока : Да
Отключение кэша аудио : Да
Использование указателей C2 : Нет

Коррекция смещения при чтении : 6
Способность читать области Lead-in и Lead-out : Нет
Заполнение пропущенных сэмплов тишиной : Да
Удаление блоков с тишиной в начале и конце : Нет
При вычислениях CRC использовались нулевые сэмплы : Да
Интерфейс : Установленный внешний ASPI-интерфейс

Выходной формат : Внутренние WAV-операции
Формат сэмплов : 44.100 Гц; 16 бит; стерео

TOC извлечённого CD

Трек | Старт | Длительность | Начальный сектор | Конечный сектор
---------------------------------------------------------------------
1 | 0:00.00 | 0:36.48 | 0 | 2747
2 | 0:36.48 | 5:30.18 | 2748 | 27515
3 | 6:06.66 | 5:52.62 | 27516 | 53977
4 | 11:59.53 | 4:30.51 | 53978 | 74278
5 | 16:30.29 | 2:59.02 | 74279 | 87705
6 | 19:29.31 | 2:55.60 | 87706 | 100890
7 | 22:25.16 | 5:09.29 | 100891 | 124094
8 | 27:34.45 | 3:36.26 | 124095 | 140320
9 | 31:10.71 | 5:05.18 | 140321 | 163213
10 | 36:16.14 | 4:14.08 | 163214 | 182271

Характеристики диапазона извлечения и сообщения об ошибках

Выбранный диапазон

Имя файла D:\Музыка православная\Русь небесная\архидиакон Роман (Тамберг) и иерей Алексий Грачёв - Русь небесная.wav

Пиковый уровень 89.7 %
Качество диапазона 100.0 %
CRC копии 6C750213
Копирование... OK

Ошибок не произошло

AccurateRip: сводка
Трек 1 нет в базе данных
Трек 2 нет в базе данных
Трек 3 нет в базе данных
Трек 4 нет в базе данных
Трек 5 нет в базе данных
Трек 6 нет в базе данных
Трек 7 нет в базе данных
Трек 8 нет в базе данных
Трек 9 нет в базе данных
Трек 10 нет в базе данных
Ни одного трека нет в базе AccurateRip

Конец отчёта
Download

Войдите для скачивания торрент-файла

Как скачивать  ·   Правила трекера

 

malish12

Стаж: 6 лет 3 месяца

Сообщений: 53

Russia

post 19-Сен-2010 22:47 (спустя 10 месяцев)

[Цитировать] 

спасибо
[Профиль]  [ЛС] 

yonas83

post 18-Окт-2010 13:32 (спустя 28 дней)

[Цитировать] 

посидируйте, пожалуйста
 

SCK

Стаж: 6 лет 1 месяц

Сообщений: 150

post 10-Сен-2013 18:05 (спустя 2 года 10 месяцев)

[Цитировать] 

Спаси Господи! Буду качать
[Профиль]  [ЛС] 
Показать сообщения:    
Ответить на тему

Текущее время: 07-Дек 22:15

Часовой пояс: GMT + 4



Вы не можете начинать темы
Вы не можете отвечать на сообщения
Вы не можете редактировать свои сообщения
Вы не можете удалять свои сообщения
Вы не можете голосовать в опросах
Вы не можете прикреплять файлы к сообщениям
Вы не можете скачивать файлы