Loading...
Error

(Православная - популярная) Микола Гнатюк Господи, помилуй - 2003, FLAC (image + .cue)+ mp3 320 Kbps

Страницы:  1, 2  След.

Ответить на тему
Статистика раздачи
Качают: [ 1 ]
Скачали: [ 23 ]
   
 
Автор Сообщение

сервп62

Стаж: 7 лет 9 месяцев

Сообщений: 303

post 06-Сен-2009 22:06

[Цитировать] 

Микола Гнатюк Господи, помилуй
pic
Страна: Украина
Жанр: Православная - популярная
Год выпуска: 2003
Формат:: FLAC (image + .cue) + MP3
Битрейт аудио: lossless + 320 Kbps
Дополнительно: В папке lossless выложены flac и cue файлы, в папке mp3 выложены файлы mp3 с битрейтом 320 Kbps,
При добавлении закачки выбираем соответствующие папки
список песен
01. Віра муз. М. Гнатюк сл. В. Крищенко 3:11
02. Истина муз. іеромонах Роман сл. І. Заволокин 3:02
03. Почаїв пісня Почаївських монахів 2:52
04. Монахи муз. і сл. Т. Кукурудза 5:14
05. Малая Родина муз. О. Морозов сл. Ю. Паркаєв і М. Гнатюк 3:58
06. Келия муз. і сл. іеромонах Роман 4:07
07. Пора покаянная муз. і сл. іеромонах Роман 3:53
08. Ксения Блаженная муз. М. Гнатюк вірши невідомого автора 3:48
09. Малиновый звон муз. О. Морозов сл. А. Поперечний 4:23
10. Ave Maria муз. Ф. Шуберт сл. М. Гнатюк 3:18
11. Україна муз. М. Гнатюк сл. Н. Романовская 3:18
12. Безсмертник муз. М. Зуєв сл. М. Сингаївський 2:59
отчёт EAC об извлечении
Exact Audio Copy V0.99 prebeta 4 from 23. January 2008

Отчёт EAC об извлечении, выполненном 6. сентября 2009, 18:39

Unknown Artist / Unknown Title

Дисковод: Optiarc DVD RW AD-7530A Adapter: 0 ID: 1

Режим чтения : Достоверность
Использование точного потока : Да
Отключение кэша аудио : Да
Использование указателей C2 : Нет

Комбинированное смещение чтения/записи : 0
Способность читать области Lead-in и Lead-out : Нет
Заполнение пропущенных сэмплов тишиной : Да
Удаление блоков с тишиной в начале и конце : Нет
При вычислениях CRC использовались нулевые сэмплы : Да
Интерфейс : Установленный внешний ASPI-интерфейс

Выходной формат : Внутренние WAV-операции
Формат сэмплов : 44.100 Гц; 16 бит; стерео

TOC извлечённого CD

Трек | Старт | Длительность | Начальный сектор | Конечный сектор
---------------------------------------------------------------------
1 | 0:00.00 | 3:11.44 | 0 | 14368
2 | 3:11.44 | 3:02.30 | 14369 | 28048
3 | 6:13.74 | 2:52.53 | 28049 | 41001
4 | 9:06.52 | 5:14.00 | 41002 | 64551
5 | 14:20.52 | 3:58.72 | 64552 | 82473
6 | 18:19.49 | 4:07.70 | 82474 | 101068
7 | 22:27.44 | 3:53.45 | 101069 | 118588
8 | 26:21.14 | 3:48.24 | 118589 | 135712
9 | 30:09.38 | 4:23.39 | 135713 | 155476
10 | 34:33.02 | 3:18.16 | 155477 | 170342
11 | 37:51.18 | 3:18.50 | 170343 | 185242
12 | 41:09.68 | 2:59.12 | 185243 | 198679

Характеристики диапазона извлечения и сообщения об ошибках

Выбранный диапазон

Имя файла D:\Микола Гнатюк\Unknown Artist - Unknown Title.wav

Пиковый уровень 96.3 %
Качество диапазона 99.9 %
CRC теста 2AC59B08
CRC копии 8AED800A
Копирование... OK

Ошибок не произошло

Конец отчёта
Download

Войдите для скачивания торрент-файла

Как скачивать  ·   Правила трекера

[Профиль]  [ЛС] 

gorec888

Стаж: 7 лет 5 месяцев

Сообщений: 4

Ukraine

post 02-Ноя-2009 00:41 (спустя 1 месяц 25 дней)

[Цитировать] 

спасибо что стали на раздачу!
[Профиль]  [ЛС] 

Владислав

post 03-Ноя-2009 19:29 (спустя 1 день 18 часов)

[Цитировать] 

Конечно желательно бы увидеть обложки диска...
 

сервп62

Стаж: 7 лет 9 месяцев

Сообщений: 303

post 03-Ноя-2009 22:46 (спустя 3 часа)

[Цитировать] 

Если были-бы, выложил
[Профиль]  [ЛС] 

ФАМАРЬ1949

post 23-Авг-2010 08:37 (спустя 9 месяцев)

[Цитировать] 

Спаси Господи !
 

vit551040

Стаж: 5 лет 3 месяца

Сообщений: 9

Откуда: Орел

Russia

post 10-Сен-2011 00:21 (спустя 1 год)

[Цитировать] 

класс!!

_________________
Бог терпел и нам велел...
[Профиль]  [ЛС] 

rOman199

Стаж: 7 лет 9 месяцев

Сообщений: 296

Russia

post 10-Сен-2011 14:03 (спустя 13 часов)

[Цитировать] 

Спаси Господи!!!!
[Профиль]  [ЛС] 

Кириченко Денис

Стаж: 5 лет

Сообщений: 88

Kazakhstan

post 15-Ноя-2011 20:47 (спустя 2 месяца 5 дней)

[Цитировать] 

gorec888 писал(а):

спасибо что стали на раздачу!
Пожалуйста, добавьте скорости! Или может еще кто-нибудь будет качать?
[Профиль]  [ЛС] 

Кириченко Денис

Стаж: 5 лет

Сообщений: 88

Kazakhstan

post 15-Дек-2011 20:34 (спустя 29 дней)

[Цитировать] 

Спасибо! Вот почему песнопения Церковные не скачивают! В них еще благодать Божия! Братья и Сестры, Попробуите!!!!!!!!! За то и скорости добавится А?
[Профиль]  [ЛС] 

aSpeeDAyad

Стаж: 6 лет 9 месяцев

Сообщений: 10

Ukraine

post 02-Янв-2012 14:05 (спустя 17 дней)

[Цитировать] 

Спаси Господи !
[Профиль]  [ЛС] 

Yevgenijz

Стаж: 4 года 9 месяцев

Сообщений: 2

Russia

post 13-Фев-2012 18:00 (спустя 1 месяц 11 дней)

[Цитировать] 

Послухаемо, как там Мыкола Гнатюк поёт. Smile
[Профиль]  [ЛС] 

Sergey81

Стаж: 4 года 8 месяцев

Сообщений: 7

Откуда: Калининградская обл.

Russia

post 02-Апр-2012 20:09 (спустя 1 месяц 18 дней)

[Цитировать] 

Спасибо раздающему!
[Профиль]  [ЛС] 

Philophonist

post 01-Окт-2012 13:16 (спустя 5 месяцев)

[Цитировать] 

Спасибо!
 

Алексей Морев

Стаж: 2 года 8 месяцев

Сообщений: 1

Kazakhstan

post 08-Мар-2014 12:58 (спустя 1 год 5 месяцев)

[Цитировать] 

Подскажите где найти песню. она начинается со слов: Когда государь император смиренно отрекся от трона, он вымолил Божию Матерь взять власть над страной и корону
[Профиль]  [ЛС] 

Драганче81

Стаж: 2 года 3 месяца

Сообщений: 1

Serbia

post 16-Авг-2014 01:49 (спустя 5 месяцев 7 дней)

[Цитировать] 

Слава Богу за све. Хвала
[Профиль]  [ЛС] 
Показать сообщения:    
Ответить на тему

Текущее время: 04-Дек 16:18

Часовой пояс: GMT + 4



Вы не можете начинать темы
Вы не можете отвечать на сообщения
Вы не можете редактировать свои сообщения
Вы не можете удалять свои сообщения
Вы не можете голосовать в опросах
Вы не можете прикреплять файлы к сообщениям
Вы не можете скачивать файлы