Loading...
Error

Валерий Гаранин - Земля Русская (2000) FLAC (image + .cue) + mp3 320 Kbps

Ответить на тему
Статистика раздачи
Скачали: [ 8 ]
   
 
Автор Сообщение

Academic Crack

Администратор

Стаж: 7 лет 11 месяцев

Сообщений: 2078

Russia

post 30-Янв-2009 04:04

[Цитировать] 

Валерий Гаранин - Земля Русская (2000) FLAC (image + .cue) + mp3 320 Kbps
pic
Год выпуска: 2000
Жанр: Фольклор
Производитель диска: РОО "Общество церковных звонарей"
Аудио кодек: FLAC/ mp3
Тип рипа: image+.cue
Битрейт аудио: lossless + mp3 320 Kbps
Исполнитель: Валерий Гаранин
Продолжительность: 66:41

Треклист:
01. Прелюдия 01:23
02. Земля русская 02:11
03. Что не три горы 03:38
04. Эх, да у князя Владимира 01:31
05. Прелюдия 2 00:47
06. Водосвятный звон 05:45
07. Полонянка 05:36
08. Прелюдия 3 02:16
09. Илья Муромец 06:05
10. Думка 04:34
11. Плач Адама 04:20
12. Встречный звон 04:57
13. Прелюдия 4 02:11
14. Вдоль по берегу 03:02
15. Прелюдия 5 02:16
16. Сон Степана Разина 04:29
17. Суздальский соборный звон 07:10
18. Пролягала степь дорожка 04:23

Внимание!
Кто хочет скачать только лишь mp3, то выбираем соответствующую папку в торренте при добавлении закачки. Кто хочет скачать только lossless - то же самое. контент lossless и lossy идентичны. Кто хочет скачать все - качайте все. Сканы обложек и диска в разрешении 300 dpi, скрины Tau Analyzer (главное окно + спектрограммы треков), а также log-файл EAC приложены к раздаче.

Прослушать сэмпл (по ссылке дождитесь загрузки панельки flash-проигрывателя и кликните на кнопку воспроизведения)

О том, как воспроизводить lossless-форматы на компьютере, читайте здесь.
Лог EAC
Exact Audio Copy V0.99 prebeta 4 from 23. January 2008

Отчёт EAC об извлечении, выполненном 30. января 2009, 2:06

Валерий Гаранин / Земля русская

Дисковод: ASUS DRW-1814BL Adapter: 2 ID: 1

Режим чтения : Достоверность
Использование точного потока : Да
Отключение кэша аудио : Да
Использование указателей C2 : Нет

Коррекция смещения при чтении : 6
Способность читать области Lead-in и Lead-out : Нет
Заполнение пропущенных сэмплов тишиной : Да
Удаление блоков с тишиной в начале и конце : Нет
При вычислениях CRC использовались нулевые сэмплы : Да
Интерфейс : Установленный внешний ASPI-интерфейс

Выходной формат : Внутренние WAV-операции
Формат сэмплов : 44.100 Гц; 16 бит; стерео

TOC извлечённого CD

Трек | Старт | Длительность | Начальный сектор | Конечный сектор
---------------------------------------------------------------------
1 | 0:00.00 | 1:23.10 | 0 | 6234
2 | 1:23.10 | 2:11.27 | 6235 | 16086
3 | 3:34.37 | 3:38.43 | 16087 | 32479
4 | 7:13.05 | 1:31.72 | 32480 | 39376
5 | 8:45.02 | 0:47.00 | 39377 | 42901
6 | 9:32.02 | 5:45.14 | 42902 | 68790
7 | 15:17.16 | 5:36.32 | 68791 | 94022
8 | 20:53.48 | 2:16.30 | 94023 | 104252
9 | 23:10.03 | 6:05.69 | 104253 | 131696
10 | 29:15.72 | 4:34.39 | 131697 | 152285
11 | 33:50.36 | 4:20.16 | 152286 | 171801
12 | 38:10.52 | 4:57.14 | 171802 | 194090
13 | 43:07.66 | 2:11.49 | 194091 | 203964
14 | 45:19.40 | 3:02.40 | 203965 | 217654
15 | 48:22.05 | 2:16.60 | 217655 | 227914
16 | 50:38.65 | 4:29.29 | 227915 | 248118
17 | 55:08.19 | 7:10.39 | 248119 | 280407
18 | 62:18.58 | 4:23.04 | 280408 | 300136

Характеристики диапазона извлечения и сообщения об ошибках

Выбранный диапазон

Имя файла J:\Religion\Валерий Гаранин - Земля русская\lossless\CDImage.wav

Пиковый уровень 99.8 %
Качество диапазона 100.0 %
CRC теста 451D9692
CRC копии 451D9692
Копирование... OK

Ошибок не произошло

AccurateRip: сводка

Трек 1 нет в базе данных
Трек 2 нет в базе данных
Трек 3 нет в базе данных
Трек 4 нет в базе данных
Трек 5 нет в базе данных
Трек 6 нет в базе данных
Трек 7 нет в базе данных
Трек 8 нет в базе данных
Трек 9 нет в базе данных
Трек 10 нет в базе данных
Трек 11 нет в базе данных
Трек 12 нет в базе данных
Трек 13 нет в базе данных
Трек 14 нет в базе данных
Трек 15 нет в базе данных
Трек 16 нет в базе данных
Трек 17 нет в базе данных
Трек 18 нет в базе данных

Ни одного трека нет в базе AccurateRip

Конец отчёта
Скрин Tau Analyzer
pic
Сканы обложек и диска
picpicpicpicpic
Download

Войдите для скачивания торрент-файла

Как скачивать  ·   Правила трекера


_________________
pic
pic 100 Мбит/с, pic 100 Мбит/с.
Исправили раздачу? Пишите в личку со ссылкой на раздачу.


Последний раз редактировалось: Academic Crack (2011-03-08 00:13), всего редактировалось 1 раз
[Профиль]  [ЛС] 

Мирослав

Стаж: 7 лет 9 месяцев

Сообщений: 123

post 13-Июн-2009 22:59 (спустя 4 месяца 14 дней)

[Цитировать] 

Спаси Господь за эти поднимающие дух песнопения! Боже, храни Святую Русь!
[Профиль]  [ЛС] 

fgthtyh778j

post 03-Июл-2009 23:56 (спустя 20 дней)

[Цитировать] 

Спасибо большое! И особенно за лосслесс.
 

Владислав

post 01-Ноя-2009 02:58 (спустя 3 месяца 28 дней)

[Цитировать] 

Как это два формата идентичны?Это вытяжка из mp3?
 

Academic Crack

Администратор

Стаж: 7 лет 11 месяцев

Сообщений: 2078

Russia

post 01-Ноя-2009 03:53 (спустя 54 минуты)

[Цитировать] 

Владислав писал(а):

Как это два формата идентичны?Это вытяжка из mp3?
Форматы идентичны по продолжительности и содержанию, но качество разное. Я не писал, что форматы идентичны, я писал, что контент идентичен.
lossless - это точная копия оригинального диска, который у меня физически на руках. Это следует из того, что я приложил к раздаче сканы обложек, диска и т.д. То есть это оригинал. mp3 - это конвертация с lossless посредством сжатия, но никак не апконверт из mp3. Был бы у меня только mp3, выложил бы только его, потому что выкладывать в паблик апконверт из mp3, это по меньшей мере... не знаю даже как назвать. У нас есть темин кощунство. Ну, так вот для аудитории любителей lossless это примерно то и значит. Поэтому здесь lossless - это точная копия оригинального диска. Корректность рипа смотрите по логу EAC, там все четко расписано. А mp3 - это уже сжатый из него.
Поэтому при скачке выбирайте ту папку, что Вам нужна. Хотите точную копию оригинала - берите lossless. Хотите mp3 для плеера/мобильника и чего угодно еще - качайте только mp3. Хотите все - качайте все. Тут как бы 2 раздачи в одной.

_________________
pic
pic 100 Мбит/с, pic 100 Мбит/с.
Исправили раздачу? Пишите в личку со ссылкой на раздачу.
[Профиль]  [ЛС] 

Владислав

post 01-Ноя-2009 11:36 (спустя 7 часов)

[Цитировать] 

Спасибо большое за качественные релизы,выкладываемые Вами!
 

Student_M

Стаж: 7 лет 1 месяц

Сообщений: 40

Greece

post 27-Ноя-2009 23:04 (спустя 26 дней)

[Цитировать] 

Редко встречается... альбом хороший
[Профиль]  [ЛС] 

ego-49

Стаж: 6 лет 2 месяца

Сообщений: 12

Russia

post 17-Фев-2011 07:40 (спустя 1 год 2 месяца)

[Цитировать] 

Огромное спасибо за Вашу работу. Храни Вас Бог. и доброго ответа на судище
[Профиль]  [ЛС] 

Олексій

Стаж: 3 года 10 месяцев

Сообщений: 9

Russia

post 07-Фев-2013 18:58 (спустя 1 год 11 месяцев)

[Цитировать] 

Спасибо
[Профиль]  [ЛС] 

SvetlanaSV

Стаж: 2 года 2 месяца

Сообщений: 74

post 09-Сен-2014 14:19 (спустя 1 год 7 месяцев)

[Цитировать] 

Спасибо!!
[Профиль]  [ЛС] 

Сиргий

Стаж: 1 год 10 месяцев

Сообщений: 10

Russia

post 02-Фев-2015 12:55 (спустя 4 месяца 22 дня)

[Цитировать] 

Благодарю!
[Профиль]  [ЛС] 
Показать сообщения:    
Ответить на тему

Текущее время: 05-Дек 00:22

Часовой пояс: GMT + 4



Вы не можете начинать темы
Вы не можете отвечать на сообщения
Вы не можете редактировать свои сообщения
Вы не можете удалять свои сообщения
Вы не можете голосовать в опросах
Вы не можете прикреплять файлы к сообщениям
Вы не можете скачивать файлы