Loading...
Error

Не унывай, душе моя - Песни православных паломников 2001, FLAC (image + .cue), lossless

Ответить на тему
Статистика раздачи
Скачали: [ 9 ]
   
 
Автор Сообщение

andrejpushkaryov

Модератор

Стаж: 7 лет 7 месяцев

Сообщений: 998

Откуда: Ижевск

Russia

post 16-Окт-2009 23:55

[Цитировать] 

Не унывай, душе моя
Песни православных паломников

pic
Страна: Россия
Жанр: песнопения
Год выпуска: 2001
Формат: FLAC (image + .cue)
Битрейт аудио: lossless
Продолжительность: 45 мин 54 сек
Трэклист:
Троицкая песня
Странник
Два Ангела
Пресветлый Ангел мой
Господи помилуй, Господи прости...
Братия моя, не забывай меня...
К кому прибегнуть я в скорбях
О Всепетая Дево Чистая
Мира Заступница
Как хорошо в Твоем храме Владычица
Самарянка
Ксения Блаженная
Отце наш (Почаевский распев)
Слава Богу за все
Соловей
Не унывай душе моя


Исполняет: Хор Храма во имя св. целителей Космы и Дамианы г. Екатеринбург
EAC log
Exact Audio Copy V0.99 prebeta 5 from 4. May 2009

Отчёт EAC об извлечении, выполненном 16. октября 2009, 15:29

Unknown Artist / Unknown Title

Дисковод: _NEC DVD_RW ND-4570A Adapter: 0 ID: 1

Режим чтения : Достоверность
Использование точного потока : Да
Отключение кэша аудио : Нет
Использование указателей C2 : Да

Комбинированное смещение чтения/записи : 0
Способность читать области Lead-in и Lead-out : Нет
Заполнение пропущенных сэмплов тишиной : Да
Удаление блоков с тишиной в начале и конце : Нет
При вычислениях CRC использовались нулевые сэмплы : Да
Интерфейс : Установленный внешний ASPI-интерфейс

Выходной формат : Внутренние WAV-операции
Формат сэмплов : 44.100 Гц; 16 бит; стерео

TOC извлечённого CD

Трек | Старт | Длительность | Начальный сектор | Конечный сектор
---------------------------------------------------------------------
1 | 0:00.00 | 2:03.16 | 0 | 9240
2 | 2:03.16 | 2:13.64 | 9241 | 19279
3 | 4:17.05 | 2:35.21 | 19280 | 30925
4 | 6:52.26 | 2:26.08 | 30926 | 41883
5 | 9:18.34 | 1:53.43 | 41884 | 50401
6 | 11:12.02 | 1:47.12 | 50402 | 58438
7 | 12:59.14 | 3:46.29 | 58439 | 75417
8 | 16:45.43 | 3:21.26 | 75418 | 90518
9 | 20:06.69 | 1:56.62 | 90519 | 99280
10 | 22:03.56 | 3:36.54 | 99281 | 115534
11 | 25:40.35 | 3:24.11 | 115535 | 130845
12 | 29:04.46 | 5:30.41 | 130846 | 155636
13 | 34:35.12 | 2:50.46 | 155637 | 168432
14 | 37:25.58 | 3:07.65 | 168433 | 182522
15 | 40:33.48 | 4:16.20 | 182523 | 201742
16 | 44:49.68 | 1:04.15 | 201743 | 206557

Характеристики диапазона извлечения и сообщения об ошибках

Выбранный диапазон

Имя файла F:\Не унывай душе моя\Unknown Artist - Unknown Title.wav

Пиковый уровень 89.1 %
Качество диапазона 100.0 %
CRC копии D75784A1
Копирование... OK

Ошибок не произошло

Конец отчёта
Обложка
pic
Download

Войдите для скачивания торрент-файла

Как скачивать  ·   Правила трекера



Последний раз редактировалось: andrejpushkaryov (2016-05-29 22:32), всего редактировалось 1 раз
[Профиль]  [ЛС] 

mvf22

Стаж: 7 лет 3 месяца

Сообщений: 38

Russia

post 17-Окт-2009 14:11 (спустя 14 часов)

[Цитировать] 

А можно в МР3? Или объясните как перевести в МР3(только, если можно,.поподробнее - я в этом деле не сильна).
[Профиль]  [ЛС] 

Вячеслав22

Стаж: 7 лет 2 месяца

Сообщений: 39

Откуда: Алтай

Russia

post 29-Янв-2010 09:27 (спустя 3 месяца 11 дней)

[Цитировать] 

Скачал но при запуске в плей листе отображается одна песня на 45 мин, это так и должно быть, а то я чайник?

_________________
Воздавай почтение ближнему как образу Божию
[Профиль]  [ЛС] 

vit00707

Стаж: 7 лет 1 месяц

Сообщений: 40

post 15-Авг-2010 18:22 (спустя 6 месяцев)

[Цитировать] 

так и должно быть
или надо найти программу в интернете для разрески flac файла на mp3
[Профиль]  [ЛС] 

Academic Crack

Администратор

Стаж: 8 лет

Сообщений: 2078

Russia

post 18-Авг-2010 01:27 (спустя 2 дня 7 часов)

[Цитировать] 

Хотите разбить на треки и получить это в mp3? Буквально сегодня написал вот это.

_________________
pic
pic 100 Мбит/с, pic 100 Мбит/с.
Исправили раздачу? Пишите в личку со ссылкой на раздачу.
[Профиль]  [ЛС] 
Показать сообщения:    
Ответить на тему

Текущее время: 09-Дек 04:07

Часовой пояс: GMT + 4



Вы не можете начинать темы
Вы не можете отвечать на сообщения
Вы не можете редактировать свои сообщения
Вы не можете удалять свои сообщения
Вы не можете голосовать в опросах
Вы не можете прикреплять файлы к сообщениям
Вы не можете скачивать файлы