Loading...
Error

Непослушник 2 (Владимир Котт) [2022 г., Комедия, WEB-DLRip]

Ответить на тему
Статистика раздачи
   
 
Автор Сообщение

surikmas

Стаж: 11 лет

Сообщений: 1

Russia

post 30-Янв-2023 23:14

[Цитировать] 

Непослушник 2


pic
Год выпуска: 2022
Жанр: Комедия
Продолжительность: 01:45:31

Режиссер: Владимир Котт

В фильме снимались: Виктор Хориняк, Таисия Вилкова, Юрий Кузнецов, Татьяна Орлова, Сергей Селин, Антон Ескин, Гоша Куценко, Маргарита Аброськина, Александр Синюков, Олег Каменщиков, Александр Комиссаров, Николай Качура, Ирина Безряднова, Константин Игнатьев, Роман Квашнин, Диана Шульмина, Максим Вяжко, Марина Дюжева, Максим Важов

Описание: К отцу Анатолию собирается на исповедь криминальный авторитет, который решил покаяться в своих грехах и начать новую жизнь. Но в тот же вечер священник после падения теряет память и забывает кто он, как жил и во что верил!

Качество: WEB-DLRip
Формат: AVI
Видео кодек: XviD
Аудио кодек: MP3
Видео: 688x288 (2.39:1), 25 fps, XviD build 73 ~852 kbps avg, 0.17 bit/pixel
Аудио: 48 kHz, MP3, 2 ch, ~128 kbps avg
MediaInfo
General
Complete name : D:Непослушник.2.2022.WEB-DLRip.by.ExKinoRay & Shkiper.avi
Format : AVI
Format/Info : Audio Video Interleave
File size : 747 MiB
Duration : 1 h 45 min
Overall bit rate : 990 kb/s
Writing application : VirtualDubMod 1.5.10.3 | www.virtualdub-fr.org || (build 2550/release)
Writing library : VirtualDubMod build 2550/release

Video
ID : 0
Format : MPEG-4 Visual
Format profile : Advanced Simple@L5
Format settings : BVOP1 / Custom Matrix
Format settings, BVOP : 1
Format settings, QPel : No
Format settings, GMC : No warppoints
Format settings, Matrix : Custom
Codec ID : XVID
Codec ID/Hint : XviD
Duration : 1 h 45 min
Bit rate : 852 kb/s
Width : 688 pixels
Height : 288 pixels
Display aspect ratio : 2.40:1
Frame rate : 25.000 FPS
Color space : YUV
Chroma subsampling : 4:2:0
Bit depth : 8 bits
Scan type : Progressive
Compression mode : Lossy
Bits/(Pixel*Frame) : 0.172
Stream size : 643 MiB (86%)
Writing library : XviD 73

Audio
ID : 1
Format : MPEG Audio
Format version : Version 1
Format profile : Layer 3
Codec ID : 55
Codec ID/Hint : MP3
Duration : 1 h 45 min
Bit rate mode : Constant
Bit rate : 128 kb/s
Channel(s) : 2 channels
Sampling rate : 48.0 kHz
Frame rate : 41.667 FPS (1152 SPF)
Compression mode : Lossy
Stream size : 96.6 MiB (13%)
Alignment : Aligned on interleaves
Interleave, duration : 40 ms (1.00 video frame)
Interleave, preload duratio : 504 ms
Writing library : LAME3.99r
Encoding settings : -m s -V 4 -q 2 -lowpass 17 -b 128
Скриншоты
pic pic pic pic
Download

Войдите на сайт, чтобы увидеть полную информацию.

Как скачивать  ·   Правила трекера

[Профиль]  [ЛС] 
Показать сообщения:    
Ответить на тему

Текущее время: 25-Июл 14:47

Часовой пояс: GMT + 4



Вы не можете начинать темы
Вы не можете отвечать на сообщения
Вы не можете редактировать свои сообщения
Вы не можете удалять свои сообщения
Вы не можете голосовать в опросах
Вы не можете прикреплять файлы к сообщениям
Вы не можете скачивать файлы