Loading...
Error

(Церковная музыка и церковные хоры (lossless).) "Антология Святогорской Агрипнии". Песнопения великой вечерни и утрени в день памяти свв. Дионисия и Митрофана. (2СD).- 2008, APE (image + .cue), lossless

Ответить на тему
Статистика раздачи
   
 
Автор Сообщение

СЕРГУЛЕТ

Стаж: 15 лет

Сообщений: 2637

Откуда: LA ROMANA

Dominicanrep

post 30-Ноя-2009 22:33

[Цитировать] 

"Антология Святогорской Агрипнии". Песнопения великой вечерни и утрени в день памяти свв. Дионисия и Митрофана. (2CD).

pic
Страна: Греция.
Жанр: Церковная музыка и церковные хоры (lossless).
Год выпуска: 2008
Формат: APE (image + .cue)
Битрейт аудио: lossless
Продолжительность: 00:56:58+00:56:57
Содержание+Обложки
picpic
Дополнительная информация: Поют монахи каливы Успения Пресвятой Богородицы скита Малая Святая Анна.
Живая запись.
EAC log
Exact Audio Copy V0.99 prebeta 5 from 4. May 2009

Отчёт EAC об извлечении, выполненном 30. ноября 2009, 15:21

Поют монахи каливы Успения Пресвятой Богородицы / Антология святогорской агрипнии-1

Дисковод: ASUS BC-1205PT Adapter: 1 ID: 0

Режим чтения : Достоверность
Использование точного потока : Да
Отключение кэша аудио : Да
Использование указателей C2 : Нет

Коррекция смещения при чтении : 667
Способность читать области Lead-in и Lead-out : Нет
Заполнение пропущенных сэмплов тишиной : Да
Удаление блоков с тишиной в начале и конце : Нет
При вычислениях CRC использовались нулевые сэмплы : Да
Интерфейс : Встроенный Win32-интерфейс для Win NT/2000

Выходной формат : Внутренние WAV-операции
Формат сэмплов : 44.100 Гц; 16 бит; стерео

TOC извлечённого CD

Трек | Старт | Длительность | Начальный сектор | Конечный сектор
---------------------------------------------------------------------
1 | 0:00.00 | 4:59.50 | 0 | 22474
2 | 4:59.50 | 1:56.71 | 22475 | 31245
3 | 6:56.46 | 1:11.67 | 31246 | 36637
4 | 8:08.38 | 1:37.47 | 36638 | 43959
5 | 9:46.10 | 2:18.09 | 43960 | 54318
6 | 12:04.19 | 2:19.25 | 54319 | 64768
7 | 14:23.44 | 2:15.23 | 64769 | 74916
8 | 16:38.67 | 9:46.61 | 74917 | 118927
9 | 26:25.53 | 3:19.45 | 118928 | 133897
10 | 29:45.23 | 2:47.05 | 133898 | 146427
11 | 32:32.28 | 0:43.46 | 146428 | 149698
12 | 33:15.74 | 3:15.53 | 149699 | 164376
13 | 36:31.52 | 3:17.04 | 164377 | 179155
14 | 39:48.56 | 4:21.24 | 179156 | 198754
15 | 44:10.05 | 6:22.47 | 198755 | 227451
16 | 50:32.52 | 1:32.60 | 227452 | 234411
17 | 52:05.37 | 1:16.09 | 234412 | 240120
18 | 53:21.46 | 1:18.33 | 240121 | 246003
19 | 54:40.04 | 2:16.70 | 246004 | 256273

Характеристики диапазона извлечения и сообщения об ошибках

Выбранный диапазон

Имя файла C:\Поют монахи каливы Успения Пресвятой Богородицы - Антология святогорской агрипнии-1.wav

Пиковый уровень 94.4 %
Качество диапазона 100.0 %
CRC копии D6AC8502
Копирование... OK

Ошибок не произошло

CD2.
Exact Audio Copy V0.99 prebeta 5 from 4. May 2009

Отчёт EAC об извлечении, выполненном 30. ноября 2009, 15:33

Поют монахи каливы Успения Пресвятой Богородицы / Антология святогорской агрипнии-2

Дисковод: ASUS BC-1205PT Adapter: 1 ID: 0

Режим чтения : Достоверность
Использование точного потока : Да
Отключение кэша аудио : Да
Использование указателей C2 : Нет

Коррекция смещения при чтении : 667
Способность читать области Lead-in и Lead-out : Нет
Заполнение пропущенных сэмплов тишиной : Да
Удаление блоков с тишиной в начале и конце : Нет
При вычислениях CRC использовались нулевые сэмплы : Да
Интерфейс : Встроенный Win32-интерфейс для Win NT/2000

Выходной формат : Внутренние WAV-операции
Формат сэмплов : 44.100 Гц; 16 бит; стерео

TOC извлечённого CD

Трек | Старт | Длительность | Начальный сектор | Конечный сектор
---------------------------------------------------------------------
1 | 0:00.00 | 1:01.06 | 0 | 4580
2 | 1:01.06 | 6:32.08 | 4581 | 33988
3 | 7:33.14 | 9:33.24 | 33989 | 76987
4 | 17:06.38 | 7:13.54 | 76988 | 109516
5 | 24:20.17 | 3:43.52 | 109517 | 126293
6 | 28:03.69 | 8:00.57 | 126294 | 162350
7 | 36:04.51 | 7:55.58 | 162351 | 198033
8 | 44:00.34 | 12:14.21 | 198034 | 253104
9 | 56:14.55 | 0:40.66 | 253105 | 256170

Характеристики диапазона извлечения и сообщения об ошибках

Выбранный диапазон

Имя файла C:\Поют монахи каливы Успения Пресвятой Богородицы - Антология святогорской агрипнии-2.wav

Пиковый уровень 94.4 %
Качество диапазона 99.9 %
CRC копии 6EFAB4AE
Копирование... OK

Ошибок не произошло
Download

Войдите на сайт, чтобы увидеть полную информацию.

Как скачивать  ·   Правила трекера

[Профиль]  [ЛС] 

Ox!

Стаж: 13 лет

Сообщений: 33

post 06-Апр-2022 13:07 (спустя 12 лет)

[Цитировать] 

Встаньте на раздачу!
[Профиль]  [ЛС] 
Показать сообщения:    
Ответить на тему

Текущее время: 25-Июл 07:25

Часовой пояс: GMT + 4



Вы не можете начинать темы
Вы не можете отвечать на сообщения
Вы не можете редактировать свои сообщения
Вы не можете удалять свои сообщения
Вы не можете голосовать в опросах
Вы не можете прикреплять файлы к сообщениям
Вы не можете скачивать файлы