Loading...
Error

Главное с Анной Шафран. Прямая речь Осипова А.И. [2020, православие, WEBRip]

Ответить на тему
Статистика раздачи
   
 
Автор Сообщение

Иванов.И.И.

Стаж: 8 месяцев

Сообщений: 165

Russia

post 06-Мар-2021 20:49

[Цитировать] 

Главное с Анной Шафран. Прямая речь Осипова А.И.

pic
Дата/Год выпуска: 2020
Страна: Россия
Жанр: православие
Продолжительность: 00:51:12
Перевод: Не требуется
Русские субтитры: нет

Оригинальная аудиодорожка: русская
Телеканал: Спас

Описание: Интервью с доктором богословия и профессором Московской Духовной Академии Осиповым А. И.

качество: WEBRip
формат: MKV
Видео: AVC MPEG-4, 1920х1080, 16:9, 1130 kb/s, 25.000 FPS
Аудио: AAC LC, 128 kb/s, 44.1 kHz, 2 channels
MediaInfo
[pre]
General
Unique ID : 78569506336019675280863443770564252815 (0x3B1BEFBE4189BE79E8762D71E441948F)
Complete name : C:\D\Главное с Анной Шафран. Прямая речь Осипова А.И. - 2020.mkv
Format : Matroska
Format version : Version 4
File size : 462 MiB
Duration : 51 min 12 s
Overall bit rate : 1 260 kb/s
Movie name : Главное с Анной Шафран. Прямая речь Осипова А.И. - 2020
Encoded date : UTC 2020-10-01 18:20:42
Writing application : mkvmerge v50.0.0 ('Awakenings') 32-bit
Writing library : libebml v1.4.0 + libmatroska v1.6.2

Video
ID : 1
Format : AVC
Format/Info : Advanced Video Codec
Format profile : High@L4
Format settings : CABAC / 3 Ref Frames
Format settings, CABAC : Yes
Format settings, Reference fra : 3 frames
Codec ID : V_MPEG4/ISO/AVC
Duration : 51 min 12 s
Bit rate : 1 130 kb/s
Width : 1 920 pixels
Height : 1 080 pixels
Display aspect ratio : 16:9
Frame rate mode : Constant
Frame rate : 25.000 FPS
Color space : YUV
Chroma subsampling : 4:2:0
Bit depth : 8 bits
Scan type : Progressive
Bits/(Pixel*Frame) : 0.022
Stream size : 414 MiB (90%)
Writing library : x264 core 155 r2901 7d0ff22
Default : Yes
Forced : No
Color range : Limited
Color primaries : BT.709
Transfer characteristics : BT.709
Matrix coefficients : BT.709

Audio
ID : 2
Format : AAC LC
Format/Info : Advanced Audio Codec Low Complexity
Codec ID : A_AAC-2
Duration : 51 min 12 s
Bit rate : 128 kb/s
Channel(s) : 2 channels
Channel layout : L R
Sampling rate : 44.1 kHz
Frame rate : 43.066 FPS (1024 SPF)
Compression mode : Lossy
Stream size : 46.9 MiB (10%)
Default : Yes
Forced : No
[/pre]
Скриншоты
picpicpic
Download

Войдите на сайт, чтобы увидеть полную информацию.

Как скачивать  ·   Правила трекера

[Профиль]  [ЛС] 
Показать сообщения:    
Ответить на тему

Текущее время: 21-Июн 22:36

Часовой пояс: GMT + 4



Вы не можете начинать темы
Вы не можете отвечать на сообщения
Вы не можете редактировать свои сообщения
Вы не можете удалять свои сообщения
Вы не можете голосовать в опросах
Вы не можете прикреплять файлы к сообщениям
Вы не можете скачивать файлы