Loading...
Error

Духовные размышления с Артемием Владимировым (Союз ТВ) [2011 г., религиозная телепрограмма, SATRip]

Ответить на тему
Статистика раздачи
   
 
Автор Сообщение

Виталий Липатов

Администратор

Стаж: 49 лет

Сообщений: 508

Russia

post 31-Мар-2019 19:41

[Цитировать] 

Духовные размышления с Артемием Владимировым

pic
Год выпуска: 2011
Жанр: религиозная телепрограмма
Продолжительность: 341х15 минут

Режиссер: Союз ТВ

Описание: Цикл передач, посвящённых молитве.

Ведущий: протоиерей Артемий Владимиров, настоятель храма Всех Святых (бывший Ново-Алексеевский женский монастырь) г. Москвы.
Сэмпл: http://multi-up.com/986347
Эфир: чт. 06:00, пт. 21:30, вc. 23:15 (московское время).

Качество: SATRip
Формат: AVI
Видео кодек: XviD
Аудио кодек: MP3
Видео: 720x480 (1.50:1), 25 fps, XviD build 46 ~1200 kbps avg, 0.14 bit/pixel
Аудио: 44.100 kHz, MPEG Layer 3, 2 ch, ~128.00 kbps avg
Скриншоты
pic pic pic
Отчет MediaInfo
General
Complete name: H:\Богословие\Современность (XX-XXIвв.)\Видео\Протоиерей Артемий Владимиров\Духовные размышления с Артемием Владимировым\001.Duhovnye_razmyshleniya_s_Artemiem_Vladimirovym(07.01.2011).avi
Format: AVI
Format/Info: Audio Video Interleave
File size: 132 MiB
Duration: 13mn 43s
Overall bit rate: 1 342 Kbps
Writing application: Lavf51.12.1

Video
ID: 0
Format: xvid
Codec ID: xvid
Duration: 13mn 43s
Bit rate: 1 201 Kbps
Width: 720 pixels
Height: 480 pixels
Display aspect ratio: 3:2
Frame rate: 25.000 fps
Standard: NTSC
Bits/(Pixel*Frame): 0.139
Stream size: 118 MiB (90%)

Audio
ID: 1
Format: MPEG Audio
Format version: Version 1
Format profile: Layer 3
Mode: Joint stereo
Mode extension: MS Stereo
Codec ID: 55
Codec ID/Hint: MP3
Duration: 13mn 43s
Bit rate mode: Constant
Bit rate: 128 Kbps
Channel count: 2 channels
Sampling rate: 44.1 KHz
Compression mode: Lossy
Stream size: 12.6 MiB (10%)
Alignment: Aligned on interleaves
Interleave, duration: 26 ms (0.65 video frame)
Download

Войдите на сайт, чтобы увидеть полную информацию.

Как скачивать  ·   Правила трекера

[Профиль]  [ЛС] 
Показать сообщения:    
Ответить на тему

Текущее время: 19-Авг 05:29

Часовой пояс: GMT + 4



Вы не можете начинать темы
Вы не можете отвечать на сообщения
Вы не можете редактировать свои сообщения
Вы не можете удалять свои сообщения
Вы не можете голосовать в опросах
Вы не можете прикреплять файлы к сообщениям
Вы не можете скачивать файлы