Loading...
Error

Альфа / Alpha (Альберт Хьюз) [2018 г., драма, приключения, семейный, BDRip]

Ответить на тему
Статистика раздачи
   
 
Автор Сообщение

Анатолий Скурин

Стаж: 6 лет 5 месяцев

Сообщений: 156

Russia

post 01-Мар-2019 18:47

[Цитировать] 

Альфа \ Alpha
pic
Страна: США
Год выпуска: 2018
Жанр: драма, приключения, семейный
Продолжительность: 01:36:31
Режиссер: Альберт Хьюз
Перевод: Профессиональный (многоголосый закадровый)

В ролях: Коди Смит-МакФи, Наташа Мальте, Леонор Варела, Йоуханнес Хёйкьюр Йоуханнессон, Йенс Хультен, Мерседес Де Ла Зерда, Прия Раджаратнам, Спенсер Богерт, Патрик Флэнеган, Майкл Круз Даль

Сюжет фильма:
20 000 лет назад Земля была холодным и неуютным местом, в котором смерть подстерегала человека на каждом шагу, а жизнь зависела от того, удалось ли загнать добычу или нет. Молодой охотник из племени, которое по уровню жизни и культуры было одним из самых развитых на планете, оказывается один на один с враждебным миром, полным смертельных опасностей. Ему предстоит заглянуть в лицо своим страхам и найти дорогу домой. И возможно, от исхода его путешествия зависит судьба всего человечества.

picpic

Качество видео: BDRip
Формат файла: avi
Видео: кодек: XviD, размер кадра: 720х304, битрейт: ~1710 кб/с, частота кадров: 25 кадров/сек
Аудио: Язык: русский, аудиокодек: AC3, битрейт аудио: 320 кб/с, частота дискретизации: 48кГц, количество каналов: 2

pic
MediaInfo
Общее
Полное имя : H:\- - - ТОРРЕНТЫ\Альфа. Alpha (2018)_1,37\Alpha_(2018).avi
Формат : AVI
Формат/Информация : Audio Video Interleave
Размер файла : 1,37 Гбайт
Продолжительность : 1 ч. 36 м.
Общий поток : 2039 Кбит/сек
Программа кодирования : VirtualDubMod 1.5.10.3 | www.virtualdub-fr.org || (build 2550/release)
Библиотека кодирования : VirtualDub build 35491/release

Видео
Идентификатор : 0
Формат : MPEG-4 Visual
Профиль формата : Advanced Simple@L5
Параметр BVOP формата : 1
Параметр QPel формата : Нет
Параметр GMC формата : Без точки перехода
Параметр матрицы формата : Выборочная
Идентификатор кодека : XVID
Идентификатор кодека/Подсказка : XviD
Продолжительность : 1 ч. 36 м.
Битрейт : 1710 Кбит/сек
Ширина : 720 пикселей
Высота : 304 пикселя
Соотношение сторон : 2,35:1
Частота кадров : 23,976 кадра/сек
Цветовое пространство : YUV
Субдискретизация насыщенности : 4:2:0
Битовая глубина : 8 бит
Тип развёртки : Прогрессивная
Метод сжатия : С потерями
Бит/(Пиксели*Кадры) : 0.326
Размер потока : 1,15 Гбайт (84%)
Библиотека кодирования : XviD 73

Аудио
Идентификатор : 1
Формат : AC-3
Формат/Информация : Audio Coding 3
Расширение режима : CM (complete main)
Параметр Endianness формата : Big
Идентификатор кодека : 2000
Продолжительность : 1 ч. 36 м.
Вид битрейта : Постоянный
Битрейт : 320 Кбит/сек
Каналы : 2 канала
Расположение каналов : Front: L R
Частота : 48,0 КГц
Битовая глубина : 16 бит
Метод сжатия : С потерями
Размер потока : 221 Мбайт (16%)
Выравнивание : Соединение по промежуткам
Продолжительность промежутка : 42 мс. (1,00 видеокадр)
Время предзагрузки промежутка : 512 мс.
Скриншоты
Download

Войдите на сайт, чтобы увидеть полную информацию.

Как скачивать  ·   Правила трекера

[Профиль]  [ЛС] 
Показать сообщения:    
Ответить на тему

Текущее время: 19-Апр 18:29

Часовой пояс: GMT + 4



Вы не можете начинать темы
Вы не можете отвечать на сообщения
Вы не можете редактировать свои сообщения
Вы не можете удалять свои сообщения
Вы не можете голосовать в опросах
Вы не можете прикреплять файлы к сообщениям
Вы не можете скачивать файлы