Loading...
Error

Мать Иисуса (Константин Худяков) [1989 г., драма, VHSRip]

Ответить на тему
Статистика раздачи
   
 
Автор Сообщение

Анатолий Скурин

Стаж: 6 лет 7 месяцев

Сообщений: 157

Russia

post 08-Ноя-2018 22:17

[Цитировать] 

Мать Иисуса
pic
Производство: Мосфильм, Товарищ (СССР), Aprel Com (Израиль)
Год выпуска: 1989
Жанр: драма
Продолжительность: 01:25:13
Автор сценария: Александр Володин
Режиссер-постановщик: Константин Худяков
Оператор-постановщик: Леонид Калашников
Композитор: Вячеслав Ганелин

В фильме снимались: Лариса Богословская (Мария), Елена Яковлева (сестра), Андрей Сергеев (старший брат), Александр Романцов (римлянин, дублировал А.Толубеев), Сергей Тарамаев (ученик), Леонид Тимцуник (фарисей, дублировал Н.Караченцов), Руслан Кахруманов (мальчик), Ольга Черноок (женщина), Владимир Епископосян, В.Мелихов, В.Петрищева, Л.Раскин

Описание: По пьесе Александра Володина.
После казни Иисуса в доме у его матери собирается несколько человек - брат и сестра, римский патриций со слугой, один из апостолов… Все они понимают, что произошло нечто более значительное, чем просто казнь какого-то полусумасшедшего пророка... Каждый для себя пытается ответить на вопрос, в чем же загадка личности Иисуса Христа. Но, увы, никто здесь не слышит друг друга. А у дома уже стоит толпа страждущих, видящих в матери Иисуса спасительницу от всех бед…

Дополнительная информация: Награды:
Приз за режиссуру Константину Худякову на международном кинофестивале в Иерусалиме в 1990 году.
Премия "Ника" "За лучшую работу художника" Борису Бланку в 1990 году.
pic
Качество: VHSRip
Формат: AVI
Видео: кодек: DivX, размер кадра: 640х480 (4х3), битрейт: 1000 Кбит/сек, частота кадров: 25 кадров/сек
Аудио: Язык: русский, аудиокодек: MP3, битрейт аудио: ~128 Кбит/сек, частота дискретизации: 48кГц, количество каналов: 2 канала
MediaInfo
Общее
Полное имя : H:\- - - ТОРРЕНТЫ\Мать Иисуса (Ел.Яковлева. 1989)_0,7.DivX\Мать Иисуса (1989).avi
Формат : AVI
Формат/Информация : Audio Video Interleave
Размер файла : 696 Мбайт
Продолжительность : 1 ч. 25 м.
Общий поток : 1141 Кбит/сек
Программа кодирования : Nandub v1.0rc2
Библиотека кодирования : VirtualDub build 35491/release

Видео
Идентификатор : 0
Формат : MPEG-4 Visual
Параметр BVOP формата : 1
Параметр QPel формата : Нет
Параметр GMC формата : Без точки перехода
Параметр матрицы формата : Default (H.263)
Режим смешивания : Сжатый битовый поток
Идентификатор кодека : DX50
Идентификатор кодека/Подсказка : DivX 5
Продолжительность : 1 ч. 25 м.
Битрейт : 1000 Кбит/сек
Ширина : 640 пикселей
Высота : 480 пикселей
Соотношение сторон : 4:3
Частота кадров : 25,000 кадров/сек
Цветовое пространство : YUV
Субдискретизация насыщенности : 4:2:0
Битовая глубина : 8 бит
Тип развёртки : Прогрессивная
Метод сжатия : С потерями
Бит/(Пиксели*Кадры) : 0.130
Размер потока : 610 Мбайт (88%)
Библиотека кодирования : DivX 6.8.3-6.8.4 (UTC 2008-06-07)

Аудио
Идентификатор : 1
Формат : MPEG Audio
Версия формата : Version 1
Профиль формата : Layer 3
Режим : Joint stereo
Расширение режима : MS Stereo
Идентификатор кодека : 55
Идентификатор кодека/Подсказка : MP3
Продолжительность : 1 ч. 25 м.
Вид битрейта : Постоянный
Битрейт : 128 Кбит/сек
Каналы : 2 канала
Частота : 48,0 КГц
Метод сжатия : С потерями
Размер потока : 78,0 Мбайт (11%)
Выравнивание : Соединение по промежуткам
Продолжительность промежутка : 24 мс. (0,60 видеокадр)
Время предзагрузки промежутка : 504 мс.
Скриншоты
picpicpicpicpic
Download

Войдите на сайт, чтобы увидеть полную информацию.

Как скачивать  ·   Правила трекера



Последний раз редактировалось: Анатолий Скурин (2019-02-18 20:50), всего редактировалось 1 раз
[Профиль]  [ЛС] 

Анатолий Скурин

Стаж: 6 лет 7 месяцев

Сообщений: 157

Russia

post 18-Фев-2019 20:30 (спустя 3 месяца 9 дней)

[Цитировать] 

Произведение сугубо художественное, не претендующее на каноническое изложение ни в коем случае...
[Профиль]  [ЛС] 
Показать сообщения:    
Ответить на тему

Текущее время: 16-Июн 02:46

Часовой пояс: GMT + 4



Вы не можете начинать темы
Вы не можете отвечать на сообщения
Вы не можете редактировать свои сообщения
Вы не можете удалять свои сообщения
Вы не можете голосовать в опросах
Вы не можете прикреплять файлы к сообщениям
Вы не можете скачивать файлы