Loading...
Error

Путь к святости (Андрей Черкес) [2012 г., Документальный, DVDRip]

Ответить на тему
Статистика раздачи
   
 
Автор Сообщение

corvin

Стаж: 7 лет

Сообщений: 25

Откуда: Москва

Russia

post 07-Фев-2012 10:14

[Цитировать] 

Путь к святости

pic
Год выпуска: 2012
Жанр: Документальный
Продолжительность: 01:48:18

Режиссер: Андрей Черкес

Описание: Путь к святости... Каков он? Можно ли спастись в миру? Войдет ли богатый в Царствие Небесное? Есть ли святость в наши дни? Эти вопросы задают себе верующие люди. Автор альманаха предлагает поискать ответы вместе... О сложных вопросах спасения, первые две серии фильма. Третью серию автор с благоговением посвятил памяти святого праведного Ионы, Одесского чудотворца. Человека, прошедшего путь к святости.

Качество: DVDRip
Формат: AVI
Видео кодек: XviD
Аудио кодек: AC3
Видео: 1595 Кбит/сек, 704x528 (4:3), 25,000 кадров/сек, MPEG-4 Visual (XviD), (Сжатый битовый поток) (Advanced Simple@L5) (BVOP1)
Аудио: 256 Кбит/с, 48,0 КГц, 16 бит, 2 канала(ов), Audio Coding 3 (AC3)

Скриншоты:
pic pic pic pic pic pic
MediaInfo
Общее
Полное имя : ...\Put.k.svyatosti.2012.avi
Формат : AVI
Формат/Информация : Audio Video Interleave
Размер файла : 1,41 Гбайт
Продолжительность : 1 ч. 48 м.
Общий поток : 1860 Кбит/сек
Программа кодирования : VirtualDubModRus 1.5.10.2 (build 2542/release)
Библиотека кодирования : VirtualDubMod build 2542/release

Видео
Идентификатор : 0
Формат : MPEG-4 Visual
Профиль формата : Advanced Simple@L5
Параметр BVOP формата : 1
Параметр QPel формата : Нет
Параметр GMC формата : Без точки перехода
Параметр матрицы формата : Default (H.263)
Идентификатор кодека : XVID
Идентификатор кодека/Подсказка : XviD
Продолжительность : 1 ч. 48 м.
Битрейт : 1595 Кбит/сек
Ширина : 704 пикселя
Высота : 528 пикселей
Соотношение сторон : 4:3
Частота кадров : 25,000 кадров/сек
Цветовое пространство : YUV
Субдискретизация насыщенности : 4:2:0
Битовая глубина : 8 бит
Тип развёртки : Прогрессивная
Метод сжатия : С потерями
Бит/(Пиксели*Кадры) : 0.172
Размер потока : 1,21 Гбайт (86%)
Библиотека кодирования : XviD 1.2.1 (UTC 2008-12-04)

Аудио
Идентификатор : 1
Формат : AC-3
Формат/Информация : Audio Coding 3
Расширение режима : CM (complete main)
Идентификатор кодека : 2000
Продолжительность : 1 ч. 48 м.
Вид битрейта : Постоянный
Битрейт : 256 Кбит/сек
Каналы : 2 канала
Расположение каналов : Front: L R
Частота : 48,0 КГц
Битовая глубина : 16 бит
Метод сжатия : С потерями
Размер потока : 198 Мбайт (14%)
Выравнивание : Разделение по промежуткам
Продолжительность промежутка : 40 мс. (1,00 видеокадр)
Время предзагрузки промежутка : 500 мс.
pic Семпл

pic DVD-раздача
Download

Войдите на сайт, чтобы увидеть полную информацию.

Как скачивать  ·   Правила трекера

[Профиль]  [ЛС] 

agp127

Стаж: 8 лет 11 месяцев

Сообщений: 19

Ukraine

post 07-Фев-2012 15:02 (спустя 4 часа)

[Цитировать] 

Благодарю
[Профиль]  [ЛС] 

segara84

Стаж: 6 лет 11 месяцев

Сообщений: 13

Ukraine

post 07-Фев-2012 18:20 (спустя 3 часа)

[Цитировать] 

Спасибо
[Профиль]  [ЛС] 

pablo

Стаж: 8 лет 11 месяцев

Сообщений: 18

Russia

post 07-Фев-2012 22:16 (спустя 3 часа)

[Цитировать] 

Спаси Господи!!!
[Профиль]  [ЛС] 

INK

Стаж: 9 лет

Сообщений: 29

Ukraine

post 11-Фев-2012 21:47 (спустя 3 дня)

[Цитировать] 

Спаси Христос за отличный фильм! Да еще и в золоте.
[Профиль]  [ЛС] 

Елена Дроздова

Стаж: 6 лет 11 месяцев

Сообщений: 16

Ukraine

post 20-Фев-2012 13:46 (спустя 8 дней)

[Цитировать] 

Низкий поклон раздающему!!!
[Профиль]  [ЛС] 

prishlez

Стаж: 9 лет 6 месяцев

Сообщений: 120

Откуда: Токмак

Ukraine

post 14-Июл-2013 16:08 (спустя 1 год 4 месяца)

[Цитировать] 

спасибо
[Профиль]  [ЛС] 

Евгений неофит

Стаж: 6 лет 6 месяцев

Сообщений: 156

Kazakhstan

post 14-Ноя-2013 15:57 (спустя 3 месяца 30 дней)

[Цитировать] 

Спаси Господи!
[Профиль]  [ЛС] 

Fotina101

Стаж: 5 лет 9 месяцев

Сообщений: 35

post 15-Ноя-2013 21:24 (спустя 1 день 5 часов)

[Цитировать] 

Спасибо!
[Профиль]  [ЛС] 

almur

Стаж: 7 лет 8 месяцев

Сообщений: 8

Откуда: Москва

Russia

post 26-Ноя-2013 13:33 (спустя 10 дней)

[Цитировать] 

Большое спасибо! С удовольствием посмотрю в Рождественский пост.

_________________
радиолюбитель
[Профиль]  [ЛС] 

Юлияli

Стаж: 4 года 10 месяцев

Сообщений: 1

post 27-Дек-2013 21:30 (спустя 1 месяц 1 день)

[Цитировать] 

Большое спасибо
[Профиль]  [ЛС] 

royalstag

Стаж: 3 года

Сообщений: 366

Russia

post 17-Дек-2017 16:20 (спустя 3 года 11 месяцев)

[Цитировать] 

скачаем и посмотрим. спаси Господь !
[Профиль]  [ЛС] 
Показать сообщения:    
Ответить на тему

Текущее время: 15-Ноя 08:09

Часовой пояс: GMT + 4



Вы не можете начинать темы
Вы не можете отвечать на сообщения
Вы не можете редактировать свои сообщения
Вы не можете удалять свои сообщения
Вы не можете голосовать в опросах
Вы не можете прикреплять файлы к сообщениям
Вы не можете скачивать файлы