Loading...
Error

(Церковная музыка и церковные хоры (lossless)) "Радуйся, Дево, христиан похвало!". (Хор собора Владимирской иконы Божией Матери. Санкт-Петербург. Регент Людмила Герасимова). - 2006, FLAC (image + .cue), lossless

Ответить на тему
Статистика раздачи
   
 
Автор Сообщение

СЕРГУЛЕТ

Стаж: 9 лет 8 месяцев

Сообщений: 2637

Откуда: LA ROMANA

Dominicanrep

post 05-Июл-2011 14:20

[Цитировать] 

"Радуйся, Дево, христиан похвало!". (Хор собора Владимирской иконы Божией Матери. Санкт-Петербург. Регент Людмила Герасимова)

pic
Страна: Россия
Жанр: Церковная музыка и церковные хоры (lossless)
Год выпуска: 2006
Формат: FLAC (image + .cue)
Битрейт аудио: lossless
Продолжительность: 01:19:00
Трэклист:
1.Тропарь Владимирской иконе Божией Матери
2.Величание Божией Матери
3.Архангельский глас
4.Богородце Дево, радуйся!
5.Хвалите имя Господне
6.Совет превечный
7.Кондак на Покров
8.Стихира на Благовещение
9.Концерт на Покров
10.Блажен муж
11.От юности моея
12.Ныне отпущаеши
13.Концерт Крещению
14.Хвалите имя Господне(Смирнов)
15.Да исправится молитва моя
16.Душе моя
17.Воскресни, Боже
18.Христос воскресе
19.Тебе поем
20.Трисвятое Пюхтицкое
21.'Не умолчим...' Концерт №25
22.Ангел вопияше
23.Взбранной Воеводе
24.Прокимен 'Величит душа'
25.Достойно есть
26.Утверди, Боже
EAC log
Exact Audio Copy V0.99 prebeta 4 from 23. January 2008

Отчёт EAC об извлечении, выполненном 3. февраля 2009, 23:37

Хор собора Владимирской иконы Божией Матери / Радуйся, Дево, христиан похвало!

Дисковод: HL-DT-STDVDRAM GSA-4167B Adapter: 0 ID: 0

Режим чтения : Достоверность
Использование точного потока : Да
Отключение кэша аудио : Да
Использование указателей C2 : Нет

Коррекция смещения при чтении : 667
Способность читать области Lead-in и Lead-out : Нет
Заполнение пропущенных сэмплов тишиной : Да
Удаление блоков с тишиной в начале и конце : Нет
При вычислениях CRC использовались нулевые сэмплы : Да
Интерфейс : Встроенный Win32-интерфейс для Win NT/2000

Выходной формат : Внутренние WAV-операции
Формат сэмплов : 44.100 Гц; 16 бит; стерео

TOC извлечённого CD

Трек | Старт | Длительность | Начальный сектор | Конечный сектор
---------------------------------------------------------------------
1 | 0:00.00 | 1:55.02 | 0 | 8626
2 | 1:55.02 | 2:58.00 | 8627 | 21976
3 | 4:53.02 | 1:28.61 | 21977 | 28637
4 | 6:21.63 | 1:16.41 | 28638 | 34378
5 | 7:38.29 | 3:21.13 | 34379 | 49466
6 | 10:59.42 | 3:21.50 | 49467 | 64591
7 | 14:21.17 | 2:14.54 | 64592 | 74695
8 | 16:35.71 | 2:01.56 | 74696 | 83826
9 | 18:37.52 | 4:10.73 | 83827 | 102649
10 | 22:48.50 | 3:48.43 | 102650 | 119792
11 | 26:37.18 | 3:05.08 | 119793 | 133675
12 | 29:42.26 | 2:15.74 | 133676 | 143874
13 | 31:58.25 | 5:54.35 | 143875 | 170459
14 | 37:52.60 | 3:59.57 | 170460 | 188441
15 | 41:52.42 | 6:43.14 | 188442 | 218680
16 | 48:35.56 | 2:54.52 | 218681 | 231782
17 | 51:30.33 | 4:25.14 | 231783 | 251671
18 | 55:55.47 | 1:10.67 | 251672 | 256988
19 | 57:06.39 | 2:35.33 | 256989 | 268646
20 | 59:41.72 | 2:56.36 | 268647 | 281882
21 | 62:38.33 | 4:53.64 | 281883 | 303921
22 | 67:32.22 | 3:06.03 | 303922 | 317874
23 | 70:38.25 | 1:37.50 | 317875 | 325199
24 | 72:16.00 | 1:44.18 | 325200 | 333017
25 | 74:00.18 | 2:27.59 | 333018 | 344101
26 | 76:28.02 | 1:45.56 | 344102 | 352032

Характеристики диапазона извлечения и сообщения об ошибках

Выбранный диапазон

Имя файла C:\Users\Администратор\Desktop\Хор собора Владимирской иконы Божией Матери - Радуйся, Дево, христиан похвало!.wav

Пиковый уровень 100.0 %
Качество диапазона 100.0 %
CRC копии 0EDB4CE1
Копирование... OK

Ошибок не произошло

AccurateRip: сводка
Трек 1 нет в базе данных
Трек 2 нет в базе данных
Трек 3 нет в базе данных
Трек 4 нет в базе данных
Трек 5 нет в базе данных
Трек 6 нет в базе данных
Трек 7 нет в базе данных
Трек 8 нет в базе данных
Трек 9 нет в базе данных
Трек 10 нет в базе данных
Трек 11 нет в базе данных
Трек 12 нет в базе данных
Трек 13 нет в базе данных
Трек 14 нет в базе данных
Трек 15 нет в базе данных
Трек 16 нет в базе данных
Трек 17 нет в базе данных
Трек 18 нет в базе данных
Трек 19 нет в базе данных
Трек 20 нет в базе данных
Трек 21 нет в базе данных
Трек 22 нет в базе данных
Трек 23 нет в базе данных
Трек 24 нет в базе данных
Трек 25 нет в базе данных
Трек 26 нет в базе данных
Ни одного трека нет в базе AccurateRip

Конец отчёта
Download

Войдите на сайт, чтобы увидеть полную информацию.

Как скачивать  ·   Правила трекера

[Профиль]  [ЛС] 

mrustin

Стаж: 1 год 2 месяца

Сообщений: 1

Russia

post 28-Июл-2017 06:17 (спустя 6 лет)

[Цитировать] 

Жаль что не скачать её. Сам лично слышал этот хор, даже был на литургии, где он пел. Это было, когда ездил в паломническую поездку в Питер от храма. Пели просто изумительно, особенно греческие песнопения.
[Профиль]  [ЛС] 
Показать сообщения:    
Ответить на тему

Текущее время: 16-Окт 02:03

Часовой пояс: GMT + 4



Вы не можете начинать темы
Вы не можете отвечать на сообщения
Вы не можете редактировать свои сообщения
Вы не можете удалять свои сообщения
Вы не можете голосовать в опросах
Вы не можете прикреплять файлы к сообщениям
Вы не можете скачивать файлы