Loading...
Error

Архимандрит Авель (части 1-5) (Владимир Бочков, Елена Александрина) [2007-2015 г., Документальный, DVDRip-AVC]

Ответить на тему
Статистика раздачи
   
 
Автор Сообщение

OlegZ

Стаж: 6 лет 7 месяцев

Сообщений: 566

Russia

post 10-Май-2017 00:57

[Цитировать] 

Архимандрит Авель (части 1-5)

pic
Дата/Год выпуска: 2007-2015
Страна: Россия
Жанр: Документальный
Продолжительность: 05:05:19
Режиссер: Владимир Бочков, Елена Александрина

Прямая ссылка на скачивание фильмов (яндекс-диск)

Часть 1. Начало пути.

Год выпуска: 2007
Страна: Россия
Жанр: Документальный
Продолжительность: 00:57:08
Режиссер: Владимир Бочков
Описание: Этот фильм рассказывает об архимандрите Авеле (Македонове). Все, кто близко знал его, называли и до сих пор называют Батюшкой. В этом слове выражено все: и любовь, и доверие, и надежда на помощь. Но мало кому известно, какой трудный путь прошел Отец Авель. Приходское служение в Рязани и Ярославле, игуменское послушание в один из самых сложных периодов истории Свято-Пантелеимонова монастыря на Святой Горе Афон... Старец и духовник сотен людей: иерархов, священников, мирян, отец Авель в конце 80-х годов стал наместником Свято-Иоанно-Богословской обители под Рязанью.
Первая часть фильма посвящена детству и отрочеству архимандрита Авеля, которые пришлись на один из самых трагических периодов истории Русской Православной Церкви — большевистский террор XX века. Юный подвижник в годы тяжких испытаний только укреплялся в вере и в дальнейшем пронес этот Божий дар через всю жизнь, щедро делясь им с людьми.
Доп. информация: По благословению архиепископа Рязанского и Касимовского Павла.
Текст читает заслуженный артист России Андрей Торхов.
Фильм создан при участии и поддержке насельников Свято-Иоанно-Богословского монастыря.
Производство телерадиокомпании «Эхо», Рязань.
Качество: DVDRip
Формат: MP4
Видео кодек: AVC
Аудио кодек: AAC
Видео: AVC, 2017 Кбит/сек, 688 x 560 (1.333), 25.000 fps
Аудио: AAC, 128 Кбит/сек, 2 канала, 48,0 КГц

Часть 2. Принятие креста.

Год выпуска: 2008
Страна: Россия
Жанр: Документальный
Продолжительность: 01:02:38
Режиссер: Елена Александрина
Описание: Вторая часть рассказывает о начале служения молодого иеромонаха Авеля у престола Божия. В этот период его духовным наставником был архиепископ Рязанский и Касимовский Димитрий (Градусов). У него юноша учился решимости утверждать православную веру в людских сердцах, с кротостью и смирением нести свой крест. Фильм охватывает 40-е годы 20-го века. Именно в это время отец Авель ступил на путь монашеского подвига, принял на себя нелегкий крест священнического служения. Став воином Христовым, он остался им на всю жизнь.
Качество: DVDRip
Формат: MP4
Видео кодек: AVC
Аудио кодек: AAC
Видео: AVC, 2387 Кбит/сек, 720 x 576 (1.334), 25.000 fps
Аудио: AAC, 128 Кбит/сек, 2 канала, 48,0 КГц

Часть 3. Тесными вратами.

Год выпуска: 2009
Страна: Россия
Жанр: Документальный
Продолжительность: 00:57:33
Режиссер: Владимир Бочков
Описание: В третьей части фильма отображен десятилетний период служения отца Авеля на Ярославской земле. Эти годы прошли в новых испытаниях, которые только укрепили дух будущего старца.
Текст читает народный артист России Сергей Леонтьев.
Качество: DVDRip
Формат: MP4
Видео кодек: AVC
Аудио кодек: AAC
Видео: AVC, 946 Кбит/сек, 718 x 574 (1.333), 25.000 fps
Аудио: AAC, 128 Кбит/сек, 2 канала, 48,0 КГц

Часть 4. Святогорец.

Год выпуска: 2011
Страна: Россия
Жанр: Документальный
Продолжительность: 01:19:13
Режиссер: Владимир Бочков
Описание: «Святогорец» - это четвертый фильм из документального цикла «Архимандрит Авель». Он охватывает очень сложный и малоизученный период в жизни Русской Православной Церкви с 1960 по 1980 годы. Тогда в жизни отца Авеля произошли события, которые во многом определили не только его судьбу, но и, в какой-то степени, повлияли на ход церковной истории. Прежде всего, это связано с судьбой Русского Свято-Пантелеимонова монастыря на Афоне. Состояние обители, которая переживала упадок, волновало Святейшего Патриарха Пимена. По его благословению митрополит Никодим (Ротов) отправил на Афон русских насельников, в числе которых был архимандрит Авель. Глубокая вера и ревностное служение определили его избрание игуменом Свято-Пантелеимонова монастыря. Своим подвижническим служением он способствовал возрождению древней Святогорской обители. Здесь по воле Божией состоялась его встреча с будущим архиепископом Берлинско-Германским и Великобританским Марком (Арндтом), который под влиянием отца Авеля принял монашеский постриг и в будущем стал одним из инициаторов и активных участников воссоединения Русской Православной Церкви в Отечестве и за рубежом. Так в фильме через судьбу одного человека раскрываются многие важнейшие и неизвестные до сего времени факты и роль в церковной истории выдающихся иерархов Русского Православия.
Доп. информация: По благословению митрополита Рязанского и Михайловского Павла.
Производство телерадиокомпании «Эхо», Рязань.
качество: DVDRip
формат: MP4
Видео кодек: AVC
Аудио кодек: AAC
Видео: AVC, 1974 Кбит/сек, 720 x 576 (1.334), 25.000 fps
Аудио: AAC, 128 Кбит/сек, 2 канала, 48,0 КГц

Часть 5. Духовник.

Год выпуска: 2015
Страна: Россия
Жанр: Документальный
Продолжительность: 00:56:18
Режиссер: Владимир Бочков
Описание: Фильм «Духовник» из документального цикла «Архимандрит Авель» охватывает 80-е годы 20-го века. Несмотря на то, что открытых гонений на Православную Церковь в этот период не было, результаты прежних притеснений хорошо были видны до конца столетия. И будут они преследовать нас еще очень и очень долго, так как стали причиной деградации бессмертной души человека, лишенной источника жизни – Бога. В такие моменты истории человечества Промысел Божий выдвигает людей, вся жизнь которых, наполненная испытаниями, дала им великий опыт любви, способной побеждать любую, даже самую страшную – смертельную муку.
В их числе был и архимандрит Авель (Македонов), который взял на себя тяжелый крест духовного окормления людей, жаждущих познания истины.
качество: DVDRip
формат: MP4
Видео кодек: AVC
Аудио кодек: AAC
Видео: AVC, 1769 Кбит/сек, 704 x 576 (1.333), 25.000 fps
Аудио: AAC, 128 Кбит/сек, 2 канала, 48,0 КГц
Список выпусков/серий
Часть 1. Начало пути
Часть 2. Принятие креста
Часть 3. Тесными вратами
Часть 4. Святогорец
Часть 5. Духовник
MediaInfo
Часть 1
Полное имя : Часть 1.mp4
Формат : MPEG-4
Профиль формата : Base Media
Идентификатор кодека : isom (isom/iso2/avc1/mp41)
Размер файла : 879 Мбайт
Продолжительность : 57 м.
Общий поток : 2151 Кбит/сек
Программа кодирования : XviD4PSP 7.0.381 DAILY
encoding_info : DVD > MP4 Apple 1080p / MPEG2 > X264 CRF 21.0 HQ / AC3 > AAC CBR 128kbps LC

Видео
Идентификатор : 1
Формат : AVC
Формат/Информация : Advanced Video Codec
Профиль формата : High@L4.1
Параметр CABAC формата : Да
Параметр ReFrames формата : 4 кадра
Идентификатор кодека : avc1
Идентификатор кодека/Информация : Advanced Video Coding
Продолжительность : 57 м.
Битрейт : 2017 Кбит/сек
Ширина : 688 пикселей
Высота : 560 пикселей
Соотношение сторон : 4:3
Режим частоты кадров : Постоянный
Частота кадров : 25,000 кадров/сек
Цветовое пространство : YUV
Субдискретизация насыщенности : 4:2:0
Битовая глубина : 8 бит
Тип развёртки : MBAFF
Метод сохранения типа развёртки : Чередующиеся поля
Порядок развёртки : Верхнее поле первое
Бит/(Пиксели*Кадры) : 0.209
Размер потока : 824 Мбайт (94%)
Библиотека кодирования : x264 core 148 r2762M 90a61ec
Настройки программы : cabac=1 / ref=3 / deblock=1:-1:-1 / analyse=0x3:0x133 / me=hex / subme=7 / psy=1 / psy_rd=1.00:0.15 / mixed_ref=1 / me_range=16 / chroma_me=1 / trellis=1 / 8x8dct=1 / cqm=0 / deadzone=21,11 / fast_pskip=1 / chroma_qp_offset=-3 / threads=5 / lookahead_threads=1 / sliced_threads=0 / nr=0 / decimate=1 / interlaced=tff / bluray_compat=0 / constrained_intra=0 / bframes=3 / b_pyramid=2 / b_adapt=2 / b_bias=0 / direct=3 / weightb=1 / open_gop=0 / weightp=0 / keyint=250 / keyint_min=25 / scenecut=40 / intra_refresh=0 / rc_lookahead=40 / rc=crf / mbtree=1 / crf=21.0 / qcomp=0.60 / qpmin=0 / qpmax=69 / qpstep=4 / vbv_maxrate=40000 / vbv_bufsize=30000 / crf_max=30.0 / nal_hrd=none / filler=0 / ip_ratio=1.40 / aq=1:1.00
Menus : 3

Аудио
Идентификатор : 2
Формат : AAC
Формат/Информация : Advanced Audio Codec
Профиль формата : LC
Идентификатор кодека : 40
Продолжительность : 57 м.
Duration_LastFrame : -19 мс.
Вид битрейта : Постоянный
Битрейт : 128 Кбит/сек
Каналы : 2 канала
Расположение каналов : Front: L R
Частота : 48,0 КГц
Частота кадров : 46,875 кадров/сек (1024 spf)
Метод сжатия : С потерями
Размер потока : 52,3 Мбайт (6%)
Default : Да
Alternate group : 1
Menus : 3

Меню #1
Идентификатор : 3
Идентификатор кодека : text
Продолжительность : 57 м.
Язык : English
Menu For : 1,2
00:00:00.000 : Глава 1

Меню #2
00:00:00.000 : Глава 1
Часть 2
Полное имя : Часть 2.mp4
Формат : MPEG-4
Профиль формата : Base Media
Идентификатор кодека : isom (isom/iso2/avc1/mp41)
Размер файла : 1,10 Гбайт
Продолжительность : 1 ч. 2 м.
Общий поток : 2520 Кбит/сек
Программа кодирования : XviD4PSP 7.0.381 DAILY
encoding_info : DVD > MP4 Apple 1080p / MPEG2 > X264 CRF 21.0 HQ / AC3 > AAC CBR 128kbps LC

Видео
Идентификатор : 1
Формат : AVC
Формат/Информация : Advanced Video Codec
Профиль формата : High@L4.1
Параметр CABAC формата : Да
Параметр ReFrames формата : 4 кадра
Идентификатор кодека : avc1
Идентификатор кодека/Информация : Advanced Video Coding
Продолжительность : 1 ч. 2 м.
Битрейт : 2387 Кбит/сек
Ширина : 720 пикселей
Высота : 576 пикселей
Соотношение сторон : 4:3
Соотношение сторон в оригинале : 4:3
Режим частоты кадров : Постоянный
Частота кадров : 25,000 кадров/сек
Стандарт вещания : PAL
Цветовое пространство : YUV
Субдискретизация насыщенности : 4:2:0
Битовая глубина : 8 бит
Тип развёртки : MBAFF
Метод сохранения типа развёртки : Чередующиеся поля
Порядок развёртки : Верхнее поле первое
Бит/(Пиксели*Кадры) : 0.230
Размер потока : 1,04 Гбайт (95%)
Библиотека кодирования : x264 core 148 r2762M 90a61ec
Настройки программы : cabac=1 / ref=3 / deblock=1:-1:-1 / analyse=0x3:0x133 / me=hex / subme=7 / psy=1 / psy_rd=1.00:0.15 / mixed_ref=1 / me_range=16 / chroma_me=1 / trellis=1 / 8x8dct=1 / cqm=0 / deadzone=21,11 / fast_pskip=1 / chroma_qp_offset=-3 / threads=5 / lookahead_threads=1 / sliced_threads=0 / nr=0 / decimate=1 / interlaced=tff / bluray_compat=0 / constrained_intra=0 / bframes=3 / b_pyramid=2 / b_adapt=2 / b_bias=0 / direct=3 / weightb=1 / open_gop=0 / weightp=0 / keyint=250 / keyint_min=25 / scenecut=40 / intra_refresh=0 / rc_lookahead=40 / rc=crf / mbtree=1 / crf=21.0 / qcomp=0.60 / qpmin=0 / qpmax=69 / qpstep=4 / vbv_maxrate=40000 / vbv_bufsize=30000 / crf_max=30.0 / nal_hrd=none / filler=0 / ip_ratio=1.40 / aq=1:1.00
Menus : 3

Аудио
Идентификатор : 2
Формат : AAC
Формат/Информация : Advanced Audio Codec
Профиль формата : LC
Идентификатор кодека : 40
Продолжительность : 1 ч. 2 м.
Duration_LastFrame : -8 мс.
Вид битрейта : Постоянный
Битрейт : 128 Кбит/сек
Каналы : 2 канала
Расположение каналов : Front: L R
Частота : 48,0 КГц
Частота кадров : 46,875 кадров/сек (1024 spf)
Метод сжатия : С потерями
Размер потока : 57,4 Мбайт (5%)
Default : Да
Alternate group : 1
Menus : 3

Меню #1
Идентификатор : 3
Идентификатор кодека : text
Продолжительность : 1 ч. 2 м.
Язык : English
Menu For : 1,2
00:00:00.000 : Глава 1

Меню #2
00:00:00.000 : Глава 1
Часть 3
Полное имя : Часть 3.mp4
Формат : MPEG-4
Профиль формата : Base Media
Идентификатор кодека : isom (isom/iso2/avc1/mp41)
Размер файла : 445 Мбайт
Продолжительность : 57 м.
Общий поток : 1080 Кбит/сек
Программа кодирования : XviD4PSP 7.0.381 DAILY
encoding_info : DVD > MP4 Apple 1080p / MPEG2 > X264 CRF 21.0 HQ / AC3 > AAC CBR 128kbps LC

Видео
Идентификатор : 1
Формат : AVC
Формат/Информация : Advanced Video Codec
Профиль формата : High@L4.1
Параметр CABAC формата : Да
Параметр ReFrames формата : 4 кадра
Идентификатор кодека : avc1
Идентификатор кодека/Информация : Advanced Video Coding
Продолжительность : 57 м.
Битрейт : 946 Кбит/сек
Ширина : 718 пикселей
Высота : 574 пикселя
Соотношение сторон : 4:3
Режим частоты кадров : Постоянный
Частота кадров : 25,000 кадров/сек
Цветовое пространство : YUV
Субдискретизация насыщенности : 4:2:0
Битовая глубина : 8 бит
Тип развёртки : Прогрессивная
Бит/(Пиксели*Кадры) : 0.092
Размер потока : 390 Мбайт (88%)
Библиотека кодирования : x264 core 148 r2762M 90a61ec
Настройки программы : cabac=1 / ref=3 / deblock=1:-1:-1 / analyse=0x3:0x133 / me=hex / subme=7 / psy=1 / psy_rd=1.00:0.15 / mixed_ref=1 / me_range=16 / chroma_me=1 / trellis=1 / 8x8dct=1 / cqm=0 / deadzone=21,11 / fast_pskip=1 / chroma_qp_offset=-3 / threads=5 / lookahead_threads=1 / sliced_threads=0 / nr=0 / decimate=1 / interlaced=0 / bluray_compat=0 / constrained_intra=0 / bframes=3 / b_pyramid=2 / b_adapt=2 / b_bias=0 / direct=3 / weightb=1 / open_gop=0 / weightp=2 / keyint=250 / keyint_min=25 / scenecut=40 / intra_refresh=0 / rc_lookahead=40 / rc=crf / mbtree=1 / crf=21.0 / qcomp=0.60 / qpmin=0 / qpmax=69 / qpstep=4 / vbv_maxrate=40000 / vbv_bufsize=30000 / crf_max=30.0 / nal_hrd=none / filler=0 / ip_ratio=1.40 / aq=1:1.00
Цветовой диапазон : Limited
Основные цвета : BT.601 PAL
Характеристики трансфера : BT.470 System B, BT.470 System G
Коэффициенты матрицы : BT.601
Menus : 3

Аудио
Идентификатор : 2
Формат : AAC
Формат/Информация : Advanced Audio Codec
Профиль формата : LC
Идентификатор кодека : 40
Продолжительность : 57 м.
Вид битрейта : Постоянный
Битрейт : 128 Кбит/сек
Каналы : 2 канала
Расположение каналов : Front: L R
Частота : 48,0 КГц
Частота кадров : 46,875 кадров/сек (1024 spf)
Метод сжатия : С потерями
Размер потока : 52,7 Мбайт (12%)
Язык : English
Default : Да
Alternate group : 1
Menus : 3

Меню #1
Идентификатор : 3
Идентификатор кодека : text
Продолжительность : 57 м.
Язык : English
Menu For : 1,2
00:00:00.000 : Глава 1

Меню #2
00:00:00.000 : Глава 1
Часть 4
Полное имя : Часть 4.mp4
Формат : MPEG-4
Профиль формата : Base Media
Идентификатор кодека : isom (isom/iso2/avc1/mp41)
Размер файла : 1,06 Гбайт
Продолжительность : 1 ч. 11 м.
Общий поток : 2108 Кбит/сек
Программа кодирования : XviD4PSP 7.0.381 DAILY
encoding_info : DVD > MP4 Apple 1080p / MPEG2 > X264 CRF 21.0 HQ / AC3 > AAC CBR 128kbps LC

Видео
Идентификатор : 1
Формат : AVC
Формат/Информация : Advanced Video Codec
Профиль формата : High@L4.1
Параметр CABAC формата : Да
Параметр ReFrames формата : 4 кадра
Идентификатор кодека : avc1
Идентификатор кодека/Информация : Advanced Video Coding
Продолжительность : 1 ч. 11 м.
Битрейт : 1974 Кбит/сек
Ширина : 720 пикселей
Высота : 576 пикселей
Соотношение сторон : 4:3
Соотношение сторон в оригинале : 4:3
Режим частоты кадров : Постоянный
Частота кадров : 25,000 кадров/сек
Стандарт вещания : PAL
Цветовое пространство : YUV
Субдискретизация насыщенности : 4:2:0
Битовая глубина : 8 бит
Тип развёртки : MBAFF
Метод сохранения типа развёртки : Чередующиеся поля
Порядок развёртки : Верхнее поле первое
Бит/(Пиксели*Кадры) : 0.190
Размер потока : 1012 Мбайт (94%)
Библиотека кодирования : x264 core 148 r2762M 90a61ec
Настройки программы : cabac=1 / ref=3 / deblock=1:-1:-1 / analyse=0x3:0x133 / me=hex / subme=7 / psy=1 / psy_rd=1.00:0.15 / mixed_ref=1 / me_range=16 / chroma_me=1 / trellis=1 / 8x8dct=1 / cqm=0 / deadzone=21,11 / fast_pskip=1 / chroma_qp_offset=-3 / threads=5 / lookahead_threads=1 / sliced_threads=0 / nr=0 / decimate=1 / interlaced=tff / bluray_compat=0 / constrained_intra=0 / bframes=3 / b_pyramid=2 / b_adapt=2 / b_bias=0 / direct=3 / weightb=1 / open_gop=0 / weightp=0 / keyint=250 / keyint_min=25 / scenecut=40 / intra_refresh=0 / rc_lookahead=40 / rc=crf / mbtree=1 / crf=21.0 / qcomp=0.60 / qpmin=0 / qpmax=69 / qpstep=4 / vbv_maxrate=40000 / vbv_bufsize=30000 / crf_max=30.0 / nal_hrd=none / filler=0 / ip_ratio=1.40 / aq=1:1.00
Menus : 3

Аудио
Идентификатор : 2
Формат : AAC
Формат/Информация : Advanced Audio Codec
Профиль формата : LC
Идентификатор кодека : 40
Продолжительность : 1 ч. 11 м.
Duration_LastFrame : -5 мс.
Вид битрейта : Постоянный
Битрейт : 128 Кбит/сек
Каналы : 2 канала
Расположение каналов : Front: L R
Частота : 48,0 КГц
Частота кадров : 46,875 кадров/сек (1024 spf)
Метод сжатия : С потерями
Размер потока : 65,6 Мбайт (6%)
Язык : English
Default : Да
Alternate group : 1
Menus : 3

Меню #1
Идентификатор : 3
Идентификатор кодека : text
Продолжительность : 1 ч. 11 м.
Язык : English
Menu For : 1,2
00:00:00.000 : Глава 1
00:02:00.000 : Глава 2
00:03:59.960 : Глава 3
00:05:59.880 : Глава 4
00:08:00.000 : Глава 5
00:09:59.760 : Глава 6
00:12:00.000 : Глава 7
00:14:00.000 : Глава 8
00:15:59.640 : Глава 9
00:17:59.640 : Глава 10
00:19:59.840 : Глава 11
00:22:00.000 : Глава 12
00:23:59.640 : Глава 13
00:25:59.800 : Глава 14
00:27:59.760 : Глава 15
00:29:59.560 : Глава 16
00:31:59.920 : Глава 17
00:33:59.560 : Глава 18
00:35:59.560 : Глава 19
00:37:59.800 : Глава 20
00:39:59.680 : Глава 21
00:41:59.880 : Глава 22
00:43:59.960 : Глава 23
00:45:59.680 : Глава 24
00:47:59.960 : Глава 25
00:49:59.960 : Глава 26
00:51:59.640 : Глава 27
00:53:59.800 : Глава 28
00:55:59.920 : Глава 29
00:57:59.880 : Глава 30
00:59:59.920 : Глава 31
01:01:59.640 : Глава 32
01:04:00.000 : Глава 33
01:05:59.840 : Глава 34
01:07:59.960 : Глава 35
01:09:59.720 : Глава 36
Вид битрейта : VBR

Меню #2
00:00:00.000 : Глава 1
00:02:00.000 : Глава 2
00:03:59.959 : Глава 3
00:05:59.880 : Глава 4
00:08:00.000 : Глава 5
00:09:59.760 : Глава 6
00:12:00.000 : Глава 7
00:14:00.000 : Глава 8
00:15:59.640 : Глава 9
00:17:59.639 : Глава 10
00:19:59.840 : Глава 11
00:22:00.000 : Глава 12
00:23:59.640 : Глава 13
00:25:59.800 : Глава 14
00:27:59.760 : Глава 15
00:29:59.560 : Глава 16
00:31:59.920 : Глава 17
00:33:59.560 : Глава 18
00:35:59.560 : Глава 19
00:37:59.800 : Глава 20
00:39:59.680 : Глава 21
00:41:59.880 : Глава 22
00:43:59.960 : Глава 23
00:45:59.680 : Глава 24
00:47:59.960 : Глава 25
00:49:59.960 : Глава 26
00:51:59.640 : Глава 27
00:53:59.799 : Глава 28
00:55:59.919 : Глава 29
00:57:59.879 : Глава 30
00:59:59.919 : Глава 31
01:01:59.639 : Глава 32
01:03:59.999 : Глава 33
01:05:59.839 : Глава 34
01:07:59.959 : Глава 35
01:09:59.719 : Глава 36
Часть 5
Полное имя : Часть 5.mp4
Формат : MPEG-4
Профиль формата : Base Media
Идентификатор кодека : isom (isom/iso2/avc1/mp41)
Размер файла : 766 Мбайт
Продолжительность : 56 м.
Общий поток : 1903 Кбит/сек
Программа кодирования : XviD4PSP 7.0.381 DAILY
encoding_info : DVD > MP4 Apple 1080p / MPEG2 > X264 CRF 21.0 HQ / MP2 > AAC CBR 128kbps LC

Видео
Идентификатор : 1
Формат : AVC
Формат/Информация : Advanced Video Codec
Профиль формата : High@L4.1
Параметр CABAC формата : Да
Параметр ReFrames формата : 4 кадра
Идентификатор кодека : avc1
Идентификатор кодека/Информация : Advanced Video Coding
Продолжительность : 56 м.
Битрейт : 1769 Кбит/сек
Ширина : 704 пикселя
Высота : 576 пикселей
Соотношение сторон : 4:3
Режим частоты кадров : Постоянный
Частота кадров : 25,000 кадров/сек
Стандарт вещания : PAL
Цветовое пространство : YUV
Субдискретизация насыщенности : 4:2:0
Битовая глубина : 8 бит
Тип развёртки : MBAFF
Метод сохранения типа развёртки : Чередующиеся поля
Порядок развёртки : Верхнее поле первое
Бит/(Пиксели*Кадры) : 0.174
Размер потока : 712 Мбайт (93%)
Библиотека кодирования : x264 core 148 r2762M 90a61ec
Настройки программы : cabac=1 / ref=3 / deblock=1:-1:-1 / analyse=0x3:0x133 / me=hex / subme=7 / psy=1 / psy_rd=1.00:0.15 / mixed_ref=1 / me_range=16 / chroma_me=1 / trellis=1 / 8x8dct=1 / cqm=0 / deadzone=21,11 / fast_pskip=1 / chroma_qp_offset=-3 / threads=5 / lookahead_threads=1 / sliced_threads=0 / nr=0 / decimate=1 / interlaced=tff / bluray_compat=0 / constrained_intra=0 / bframes=3 / b_pyramid=2 / b_adapt=2 / b_bias=0 / direct=3 / weightb=1 / open_gop=0 / weightp=0 / keyint=250 / keyint_min=25 / scenecut=40 / intra_refresh=0 / rc_lookahead=40 / rc=crf / mbtree=1 / crf=21.0 / qcomp=0.60 / qpmin=0 / qpmax=69 / qpstep=4 / vbv_maxrate=40000 / vbv_bufsize=30000 / crf_max=30.0 / nal_hrd=none / filler=0 / ip_ratio=1.40 / aq=1:1.00
Menus : 3

Аудио
Идентификатор : 2
Формат : AAC
Формат/Информация : Advanced Audio Codec
Профиль формата : LC
Идентификатор кодека : 40
Продолжительность : 56 м.
Вид битрейта : Постоянный
Битрейт : 128 Кбит/сек
Каналы : 2 канала
Расположение каналов : Front: L R
Частота : 48,0 КГц
Частота кадров : 46,875 кадров/сек (1024 spf)
Метод сжатия : С потерями
Размер потока : 51,5 Мбайт (7%)
Default : Да
Alternate group : 1
Menus : 3

Меню #1
Идентификатор : 3
Идентификатор кодека : text
Продолжительность : 56 м.
Язык : English
Menu For : 1,2
Duration_LastFrame : -222101
00:00:00.000 : Глава 1
00:04:00.000 : Глава 2
00:08:00.000 : Глава 3
00:12:00.000 : Глава 4
00:16:00.000 : Глава 5
00:20:00.000 : Глава 6
00:24:00.000 : Глава 7
00:28:00.000 : Глава 8
00:32:00.000 : Глава 9
00:36:00.000 : Глава 10
00:40:00.000 : Глава 11
00:44:00.000 : Глава 12
00:48:00.000 : Глава 13
00:52:00.000 : Глава 14
00:56:00.000 : Глава 15
Вид битрейта : VBR

Меню #2
00:00:00.000 : Глава 1
00:04:00.000 : Глава 2
00:08:00.000 : Глава 3
00:12:00.000 : Глава 4
00:16:00.000 : Глава 5
00:20:00.000 : Глава 6
00:24:00.000 : Глава 7
00:28:00.000 : Глава 8
00:32:00.000 : Глава 9
00:36:00.000 : Глава 10
00:40:00.000 : Глава 11
00:44:00.000 : Глава 12
00:48:00.000 : Глава 13
00:52:00.000 : Глава 14
00:56:00.000 : Глава 15
Скриншоты
picpicpicpicpic
Архимандрит Авель. Четыре части (XviD)
Архимандрит Авель. Часть 5. Духовник (Владимир Бочков) [2015 г., Документальный, DVDRip(XviD)] Обновлено 12.05.17
Архимандрит Авель. Часть 5. Духовник (Владимир Бочков) [2015 г., Документальный, DVD5]

Раздача всех фильмов с 00:00 до 07:00. Прямую ссылку на фильмы из раздачи смотрите в начале этого окна
Download

Войдите на сайт, чтобы увидеть полную информацию.

Как скачивать  ·   Правила трекера



Последний раз редактировалось: OlegZ (2017-12-21 09:04), всего редактировалось 7 раз(а)
[Профиль]  [ЛС] 

---!!!

Стаж: 2 года 8 месяцев

Сообщений: 833

Russia

post 12-Май-2017 16:07 (спустя 2 дня 15 часов)

[Цитировать] 

Спасибо
[Профиль]  [ЛС] 

royalstag

Стаж: 2 года 5 месяцев

Сообщений: 348

Russia

post 21-Янв-2018 21:09 (спустя 8 месяцев)

[Цитировать] 

все части сразу - отлично !
[Профиль]  [ЛС] 
Показать сообщения:    
Ответить на тему

Текущее время: 22-Апр 22:21

Часовой пояс: GMT + 4



Вы не можете начинать темы
Вы не можете отвечать на сообщения
Вы не можете редактировать свои сообщения
Вы не можете удалять свои сообщения
Вы не можете голосовать в опросах
Вы не можете прикреплять файлы к сообщениям
Вы не можете скачивать файлы