Loading...
Error

(Православная песня) Александр Барыкин - Молись дитя! - 2002, APE (image + .cue), lossless

Ответить на тему
Статистика раздачи
Качают: [ 1 ]
Скачали: [ 24 ]
   
 
Автор Сообщение

Sanechek

Стаж: 1 год 7 месяцев

Сообщений: 43

Russia

post 05-Авг-2016 23:26

[Цитировать] 

Александр Барыкин - Молись дитя!

pic
Страна: Россия
Жанр: Православная песня
Год выпуска: 2002
Формат: APE (image + .cue)
Битрейт аудио: lossless
Продолжительность: 56 минут
Трэклист:
01. Молись, дитя! - 03:24
02. Аминь! - 04:19
03. Божие Слово - 04:59
04. Диво-дивное - 03:03
05. Каюсь - 04:54
06. Облака - 05:46
07. Откровение - 04:49
08. Птицы - 05:18
09. Чистые ключи - 03:02
10. Брат - 05:58
11. Все пройдет - 03:34
12. Свети, любовь - 05:58
Отчёт EAC об извлечении
Exact Audio Copy V0.99 prebeta 4 from 23. January 2008

Отчёт EAC об извлечении, выполненном 25. ноября 2008, 16:09

Александр Барыкин / Молись, дитя!

Дисковод: SONY DVD RW DW-G120A Adapter: 3 ID: 1

Режим чтения : Достоверность
Использование точного потока : Да
Отключение кэша аудио : Да
Использование указателей C2 : Нет

Коррекция смещения при чтении : 6
Способность читать области Lead-in и Lead-out : Нет
Заполнение пропущенных сэмплов тишиной : Да
Удаление блоков с тишиной в начале и конце : Нет
При вычислениях CRC использовались нулевые сэмплы : Да
Интерфейс : Установленный внешний ASPI-интерфейс

Выходной формат : Внутренние WAV-операции
Формат сэмплов : 44.100 Гц; 16 бит; стерео

TOC извлечённого CD

Трек | Старт | Длительность | Начальный сектор | Конечный сектор
---------------------------------------------------------------------
1 | 0:00.00 | 3:26.51 | 0 | 15500
2 | 3:26.51 | 4:21.23 | 15501 | 35098
3 | 7:47.74 | 5:00.45 | 35099 | 57643
4 | 12:48.44 | 3:05.12 | 57644 | 71530
5 | 15:53.56 | 4:55.73 | 71531 | 93728
6 | 20:49.54 | 5:47.56 | 93729 | 119809
7 | 26:37.35 | 4:51.05 | 119810 | 141639
8 | 31:28.40 | 5:20.33 | 141640 | 165672
9 | 36:48.73 | 3:03.02 | 165673 | 179399
10 | 39:52.00 | 6:00.21 | 179400 | 206420
11 | 45:52.21 | 4:35.61 | 206421 | 227106
12 | 50:28.07 | 5:57.73 | 227107 | 253954

Характеристики диапазона извлечения и сообщения об ошибках

Выбранный диапазон

Имя файла H:\Musik\A.Barykin\Молись, дитя!\Александр Барыкин - Молись, дитя!.wav

Пиковый уровень 98.9 %
Качество диапазона 99.9 %
CRC копии C60681EF
Копирование... OK

Ошибок не произошло

Конец отчёта
Download

Войдите для скачивания торрент-файла

Как скачивать  ·   Правила трекера

[Профиль]  [ЛС] 

Ard

Стаж: 6 лет 6 месяцев

Сообщений: 125

Russia

post 06-Авг-2016 00:55 (спустя 1 час 29 минут)

[Цитировать] 

Вот это для меня новость! Я думал, он только про велосипед и про карнавал пел. Надо послушать.

_________________
Василий Великий: «Кто смотрит на зло без отвращения, тот скоро будет смотреть на него с удовольствием".
[Профиль]  [ЛС] 

arch_Elijah

Стаж: 4 года 2 месяца

Сообщений: 165

Откуда: KIEV

Ukraine

post 06-Авг-2016 23:02 (спустя 22 часа)

[Цитировать] 

Мне понравилось, спокойная музыка и вокал достойный...

_________________
орешек знаний твёрд...
[Профиль]  [ЛС] 

a1bllll

Стаж: 5 лет 9 месяцев

Сообщений: 278

Russia

post 07-Авг-2016 20:27 (спустя 21 час)

[Цитировать] 

Спаси Вас Бог!!!

_________________
Слава Богу за всё!
[Профиль]  [ЛС] 

a1bllll

Стаж: 5 лет 9 месяцев

Сообщений: 278

Russia

post 07-Авг-2016 20:33 (спустя 5 минут)

[Цитировать] 

Ard писал(а):

Вот это для меня новость! Я думал, он только про велосипед и про карнавал пел. Надо послушать.
Для меня тоже это была новость. Кстати, его песни звучат на "Радио Вера": http://radiovera.hostingradio.ru:8007/radiovera_128

_________________
Слава Богу за всё!
[Профиль]  [ЛС] 

Ard

Стаж: 6 лет 6 месяцев

Сообщений: 125

Russia

post 11-Авг-2016 21:45 (спустя 4 дня)

[Цитировать] 

Слушаю сейчас. Вот это да! Никак не ожидал от Барыкина! Даже не представлял. Аж 2002 год, мимо меня прошло. Я искал и слушал православные современные песни - Кинчев (поаккуратней с ним, у меня лично после прослушивания многих его песен реакция плохая), Скобля, но Барыкина даже не встречал нигде, как православного певца. А ещё какой, оказывается.
Упокой, Господи, его душу.

_________________
Василий Великий: «Кто смотрит на зло без отвращения, тот скоро будет смотреть на него с удовольствием".
[Профиль]  [ЛС] 
Показать сообщения:    
Ответить на тему

Текущее время: 10-Дек 08:56

Часовой пояс: GMT + 4



Вы не можете начинать темы
Вы не можете отвечать на сообщения
Вы не можете редактировать свои сообщения
Вы не можете удалять свои сообщения
Вы не можете голосовать в опросах
Вы не можете прикреплять файлы к сообщениям
Вы не можете скачивать файлы