Loading...
Error

Святитель Лука. Чудо молитвы [Ток-шоу]

Ответить на тему
Статистика раздачи
   
 
Автор Сообщение

Сан Саныч

Стаж: 1 год 3 месяца

Сообщений: 9

post 17-Июл-2016 17:13

[Цитировать] 

Святитель Лука. Чудо молитвы

pic
Год выпуска: 2013
Страна: Россия
Жанр: Ток-шоу
Ведущий: Андрей Малахов
Продолжительность: 00:50:57
Язык: Русский
Русские субтитры: Нет

Описание: В студии "Пусть говорят" - родственники Святого Луки Крымского, которые продолжают его благое дело – лечат людей, а также те, кого исцелила молитва Святителю. Земной путь выдающегося ученого и врача Валентина Феликсовича Войно-Ясенецкого и чудеса веры от Святителя Луки.

Антон и Виктория Макарские почти 14 лет вместе. Все эти годы они мечтали и молились о рождении ребенка. Полгода назад чудо свершилось – на свет появилась долгожданная дочь Машенька. Виктория уверена: счастьем материнства она обязана Святителю Луке Крымскому.

Назару Стадниченко 23 года. Молодой человек мечтал стать великим пианистом, но случилась беда, и он чуть не лишился пальцев на руке. Мама Назара молилась Святому Луке об исцелении сына, и он услышал ее.

Мужа правнучки Святителя Луки Татьяны Войно-Ясенецкой Сергея несколько лет назад тоже исцелила молитва. Врачи были в шоке: после тяжелой формы туберкулеза у мужчина полностью восстановилось легкое.

Качество: SATRip
Формат: MPEG-4
Видео кодек: AVC
Аудио кодек: AAC
Видео: 1528 Кбит/сек, 1280*720 (16:9), в 25,000 кадров/сек, AVC (High@L3.1) (CABAC / 1 Ref Frames)
Аудио: 192 Кбит/сек, 44,1 КГц, 2 канала, AAC (LC)

Время раздачи: с 14:00 до 22:00 МСК Раздаю до первых сидов
Просьба: Все кто скачал фильм, не уходите с раздачи

pic
MediaInfo
Видео
Идентификатор : 1
Формат : AVC
Формат/Информация : Advanced Video Codec
Профиль формата : High@L3.1
Параметр CABAC формата : Да
Параметр ReFrames формата : 1 кадр
Параметр GOP формата : M=1, N=60
Идентификатор кодека : avc1
Идентификатор кодека/Информация : Advanced Video Coding
Продолжительность : 50 м.
Битрейт : 1528 Кбит/сек
Максимальный битрейт : 7263 Кбит/сек
Ширина : 1280 пикселей
Высота : 720 пикселей
Соотношение сторон : 16:9
Режим частоты кадров : Постоянный
Частота кадров : 25,000 кадров/сек
Цветовое пространство : YUV
Субдискретизация насыщенности : 4:2:0
Битовая глубина : 8 бит
Тип развёртки : Прогрессивная
Бит/(Пиксели*Кадры) : 0.066
Размер потока : 557 Мбайт (89%)

Аудио
Идентификатор : 2
Формат : AAC
Формат/Информация : Advanced Audio Codec
Профиль формата : LC
Идентификатор кодека : 40
Продолжительность : 50 м.
Вид битрейта : Переменный
Битрейт : 192 Кбит/сек
Максимальный битрейт : 201 Кбит/сек
Каналы : 2 канала
Расположение каналов : Front: L R
Частота : 44,1 КГц
Частота кадров : 43,066 кадра/сек (1024 spf)
Метод сжатия : С потерями
Размер потока : 70,0 Мбайт (11%)
Скриншоты
picpicpicpicpicpic
Нажмите на превью картинки - картинка откроется в другом окне.
Чтобы посмотреть оригинал фотографии, для этого нужно нажать под фото справа "три точки ...", и нажать "Открыть оригинал".
Download

Войдите на сайт, чтобы увидеть полную информацию.

Как скачивать  ·   Правила трекера



Последний раз редактировалось: Сан Саныч (2016-07-22 14:11), всего редактировалось 9 раз(а)
[Профиль]  [ЛС] 

arch_Elijah

Стаж: 5 лет

Сообщений: 172

Откуда: KIEV

Ukraine

post 18-Июл-2016 12:42 (спустя 19 часов)

[Цитировать] 

интересьненько...

_________________
орешек знаний твёрд...
[Профиль]  [ЛС] 

a1bllll

Стаж: 6 лет 8 месяцев

Сообщений: 358

Russia

post 22-Июл-2016 02:00 (спустя 3 дня)

[Цитировать] 

Спаси Вас Бог!

_________________
Слава Богу за всё!
[Профиль]  [ЛС] 

igoor71

Стаж: 3 года 8 месяцев

Сообщений: 137

Откуда: тула

Russia

post 06-Ноя-2016 18:49 (спустя 3 месяца 15 дней)

[Цитировать] 

Спаси Господи!
[Профиль]  [ЛС] 
Показать сообщения:    
Ответить на тему

Текущее время: 17-Окт 20:53

Часовой пояс: GMT + 4



Вы не можете начинать темы
Вы не можете отвечать на сообщения
Вы не можете редактировать свои сообщения
Вы не можете удалять свои сообщения
Вы не можете голосовать в опросах
Вы не можете прикреплять файлы к сообщениям
Вы не можете скачивать файлы