Loading...
Error

Окаменелая комсомолка. Чудеса под грифом "секретно" [Ток-шоу]

Ответить на тему
Статистика раздачи
Скачали: [ 14 ]
   
 
Автор Сообщение

Сан Саныч

Стаж: 10 месяцев

Сообщений: 9

post 11-Июл-2016 16:47

[Цитировать] 

Окаменелая комсомолка. Чудеса под грифом "секретно"

pic
Год выпуска: 2016
Страна: Россия
Жанр: Ток-шоу
Ведущий: Борис Корчевников
Продолжительность: 01:04:59
Язык: Русский
Русские субтитры: Нет

В фильме снимались: В студии ток-шоу Тамара Ефремова, очевидец «Стояния Зои» в г. Куйбышеве (1956 г.)

Описание: 60 лет назад произошло одно из самых мистических событий в истории СССР. На окраине закрытого Куйбышева молодая девушка Зоя окаменела и иконой Николая Чудотворца в руках и стояла так много дней. «Стояние Зои» стало всесоюзным скандалом, толпы народа от дома Зои разгоняла конная милиция. Партийные чиновники делали все, чтобы скрыть это загадочное происшествие. Им удалось замести следы. До сих пор спорят — было или не было.

В новогоднюю ночь 1956 года в доме Клавдии Болонкиной на улице Чкалова собралась компания молодых людей. Среди них была 18-летняя Зоя. Все подруги с кавалерами, а Зоя все сидела одна, ее парень Николай задерживался. Когда начались танцы, она заявила: «Ну, если нет моего Николая, буду с Николаем Угодником танцевать, и направилась к углу, где висели иконы». Друзья ужаснулись: «Зоя это грех!». Но она сказала: «Если есть Бог, пусть он меня накажет». Взяла икону, прижала к груди, вошла в круг танцующих, и вдруг застыла, словно вросла в пол. Ее невозможно было сдвинуть с места, а икону нельзя было взять из рук — она будто приклеилась намертво…

Качество: SATRip
Формат: MPEG-4
Видео кодек: AVC
Аудио кодек: AAC
Видео: 1785 Кбит/сек, 1280*720 (16:9), в 25,000 кадров/сек, AVC (High@L3.1) (CABAC / 2 Ref Frames)
Аудио: 128 Кбит/сек, 48,0 КГц, 2 канала, AAC (LC)

Время раздачи: с 14:00 до 22:00 МСК Раздаю до первых сидов
Просьба: Все кто скачал фильм, не уходите с раздачи

pic
MediaInfo
Видео
Идентификатор : 1
Формат : AVC
Формат/Информация : Advanced Video Codec
Профиль формата : High@L3.1
Параметр CABAC формата : Да
Параметр ReFrames формата : 2 кадра
Идентификатор кодека : avc1
Идентификатор кодека/Информация : Advanced Video Coding
Продолжительность : 1 ч. 4 м.
Вид битрейта : Переменный
Битрейт : 1785 Кбит/сек
Максимальный битрейт : 2400 Кбит/сек
Ширина : 1280 пикселей
Высота : 720 пикселей
Соотношение сторон : 16:9
Режим частоты кадров : Постоянный
Частота кадров : 25,000 кадров/сек
Цветовое пространство : YUV
Субдискретизация насыщенности : 4:2:0
Битовая глубина : 8 бит
Тип развёртки : Прогрессивная
Бит/(Пиксели*Кадры) : 0.077
Размер потока : 830 Мбайт (93%)

Аудио
Идентификатор : 2
Формат : AAC
Формат/Информация : Advanced Audio Codec
Профиль формата : LC
Идентификатор кодека : 40
Продолжительность : 1 ч. 4 м.
Вид битрейта : Постоянный
Битрейт : 128 Кбит/сек
Каналы : 2 канала
Расположение каналов : Front: L R
Частота : 48,0 КГц
Частота кадров : 46,875 кадров/сек (1024 spf)
Метод сжатия : С потерями
Размер потока : 58,3 Мбайт (7%)
Скриншоты
picpicpicpicpicpic
Нажмите на превью картинки - картинка откроется в другом окне.
Чтобы посмотреть оригинал фотографии, для этого нужно нажать под фото справа "три точки ...", и нажать "Открыть оригинал".
Download

Войдите для скачивания торрент-файла

Как скачивать  ·   Правила трекера



Последний раз редактировалось: Сан Саныч (2016-07-22 14:12), всего редактировалось 25 раз(а)
[Профиль]  [ЛС] 

---!!!

Стаж: 1 год 9 месяцев

Сообщений: 594

Russia

post 12-Июл-2016 02:25 (спустя 9 часов)

[Цитировать] 

Благодарю!
[Профиль]  [ЛС] 

a1bllll

Стаж: 6 лет 3 месяца

Сообщений: 324

Russia

post 22-Июл-2016 01:53 (спустя 9 дней)

[Цитировать] 

Спаси Вас Бог!

_________________
Слава Богу за всё!
[Профиль]  [ЛС] 
Показать сообщения:    
Ответить на тему

Текущее время: 24-Май 04:23

Часовой пояс: GMT + 4



Вы не можете начинать темы
Вы не можете отвечать на сообщения
Вы не можете редактировать свои сообщения
Вы не можете удалять свои сообщения
Вы не можете голосовать в опросах
Вы не можете прикреплять файлы к сообщениям
Вы не можете скачивать файлы