Loading...
Error

Шишкина школа. Математика [2010, Дошкольное образование, SATRip, RUS] (Видеоурок)

Ответить на тему
Статистика раздачи
   
 
Автор Сообщение

Виталий Липатов

Администратор

Стаж: 48 лет

Сообщений: 492

Russia

post 05-Янв-2016 23:36

[Цитировать] 

Шишкина школа. Математика

pic
Страна: Россия
Тематика: Дошкольное образование
Тип раздаваемого материала: Видеоурок
Продолжительность: 09:02:55
Год выпуска: 2010

Язык: Русский
Перевод: Отсутствует

Описание: Цикл образовательных программ для детей дошкольного возраста.
Математика — наука не простая, она требует дисциплины и внимательности. Но с профессором Пифагором этот предмет станет настолько увлекательным, что детей нельзя будет от экрана оторвать! Каждый урок математики для малышей в лесной школе — это весёлая разминка для ума, которая проходит в игровой форме. Если посещать занятия регулярно, можно научиться «щёлкать» даже трудные задачки, как орешки! Занимательная математика для самых маленьких позволит узнать удивительные вещи, подготовит дошкольников к началу учебной жизни.

Доп. информация: Видеоуроки по математике могут быть использованы не только для семейного просмотра, но и для показа на занятиях в дошкольных учреждениях.

Качество: SATRip
Формат: AVI
Видео кодек: XviD
Аудио кодек: MP3
Видео: XviD, 720x544, (4:3), ~1360kbps avg, 0.14 bit/pixel, 25 fps
Аудио: 48.100 kHz, MPEG Layer 3, 2 ch, 106.00 kbps avg
Скриншоты
pic pic pic
Отчет MediaInfo
General
Complete name: F:\Детям\Передачи\ТК Союз\Шишкин Лес\Шишкина Школа\Математика\01. Цифра 1.avi
Format: AVI
Format/Info: Audio Video Interleave
File size: 90.0 MiB
Duration: 8mn 43s
Overall bit rate mode: Variable
Overall bit rate: 1 443 Kbps
Writing application: VirtualDubMod 1.5.4.1 (build 2178/release)
Writing library: VirtualDubMod build 2178/release

Video
ID: 0
Format: MPEG-4 Visual
Format settings, BVOP: 1
Format settings, QPel: No
Format settings, GMC: No warppoints
Format settings, Matrix: Default (H.263)
Muxing mode: Packed bitstream
Codec ID: DX50
Codec ID/Hint: DivX 5
Duration: 8mn 43s
Bit rate: 1 323 Kbps
Width: 720 pixels
Height: 544 pixels
Display aspect ratio: 4:3
Frame rate: 25.000 fps
Color space: YUV
Chroma subsampling: 4:2:0
Bit depth: 8 bits
Scan type: Progressive
Compression mode: Lossy
Bits/(Pixel*Frame): 0.135
Stream size: 82.5 MiB (92%)
Writing library: DivX 6.8.5 (UTC 2009-08-20)

Audio
ID: 1
Format: MPEG Audio
Format version: Version 1
Format profile: Layer 3
Mode: Joint stereo
Mode extension: MS Stereo
Codec ID: 55
Codec ID/Hint: MP3
Duration: 8mn 42s
Bit rate mode: Variable
Bit rate: 107 Kbps
Channel count: 2 channels
Sampling rate: 48.0 KHz
Compression mode: Lossy
Stream size: 6.66 MiB (7%)
Alignment: Aligned on interleaves
Interleave, duration: 24 ms (0.60 video frame)
Interleave, preload duration: 517 ms
Шишкина Школа. География
Шишкина Школа. Музыка
Шишкина Школа. Рисование
Шишкина Школа. Русский язык
Download

Войдите на сайт, чтобы увидеть полную информацию.

Как скачивать  ·   Правила трекера



Последний раз редактировалось: Виталий Липатов (2016-01-08 20:00), всего редактировалось 1 раз
[Профиль]  [ЛС] 

trash50

Стаж: 2 года 8 месяцев

Сообщений: 148

post 06-Янв-2016 20:51 (спустя 21 час)

[Цитировать] 

Неработает (ссылка скачать).
Исправьте пожалуйста.
[Профиль]  [ЛС] 

Игорь I

Стаж: 9 лет 3 месяца

Сообщений: 1801

Russia

post 14-Янв-2016 18:02 (спустя 7 дней)

[Цитировать] 

Благодарю!
[Профиль]  [ЛС] 

trash50

Стаж: 2 года 8 месяцев

Сообщений: 148

post 29-Янв-2017 15:55 (спустя 1 год)

[Цитировать] 

Просьба; оставайтесь на раздаче!
[Профиль]  [ЛС] 
Показать сообщения:    
Ответить на тему

Текущее время: 14-Авг 10:28

Часовой пояс: GMT + 4



Вы не можете начинать темы
Вы не можете отвечать на сообщения
Вы не можете редактировать свои сообщения
Вы не можете удалять свои сообщения
Вы не можете голосовать в опросах
Вы не можете прикреплять файлы к сообщениям
Вы не можете скачивать файлы