Loading...
Error

Шишкина школа. География (ДСОТ "Радость моя") / Выпуски: 1 - 77 [2010, Передача для детей, SATRip] (Видеоурок)

Ответить на тему
Статистика раздачи
   
 
Автор Сообщение

Виталий Липатов

Администратор

Стаж: 49 лет

Сообщений: 507

Russia

post 05-Янв-2016 23:40

[Цитировать] 

Шишкина школа. География

pic
Дата/Год выпуска: 2010
Страна: Россия
Жанр: Передача для детей
Продолжительность: 08:54:57
Режиссер: ДСОТ "Радость моя"
Телеканал: ДСОТ "Радость моя"
Описание: Цикл образовательных программ для детей дошкольного возраста.
Кто из ребят не мечтает о путешествиях? На уроках географии в лесной школе не бывает скучно: здесь можно не только узнать о жизни океанов и материков, но и побывать вместе с профессором Иноземцевым в разных странах, познакомиться с государственной символикой, с достопримечательностями столиц. Занимательная география для детей позволит узнать удивительные вещи, подготовит дошкольников к началу учебной жизни.

Доп. информация: Видеоуроки по географии могут быть использованы не только для семейного просмотра, но и для показа на занятиях в дошкольных учреждениях.

Сэмпл: http://multi-up.com/975174

качество: SATRip
формат: AVI
Видео: XviD, 720x544, (4:3), ~1360kbps avg, 0.14 bit/pixel, 25 fps
Аудио: 48.100 kHz, MPEG Layer 3, 2 ch, 106.00 kbps avg
Список выпусков/серий
01. Глобус.avi
02. Параллели и меридианы.avi
03. Карты.avi
04. Стороны света.avi
05. Реки, моря и океаны.avi
06. Моря.avi
07. Озёра.avi
08. Реки.avi
09. Горы.avi
10. Северное заполярье.avi
11. Антартида.avi
12. Животный мир Арктики.avi
13. Тундра.avi
14. Тундра. Обитатели.avi
15. Лесотундра.avi
16. Тайга.avi
17. Тайга. Обитатели. Животные (1 часть).avi
18. Тайга. Обитатели. Животные (2 часть).avi
19. Смешанный лес.avi
20. Тайга. Обитатели. Птицы.avi
21. Смешанный лес. Обитатели (1 часть).avi
22. Смешанный лес. Обитатели (2 часть).avi
23. Смешанный лес. Обитатели. Птицы.avi
24. Болото.avi
25. Лесостепь и степь.avi
26. Степь. Обитатели.avi
27. Степь. Обитатели. Птицы.avi
28. Прерия.avi
29. Пустыня.avi
30 Пустыня. Обитатели (1 часть).avi
31. Пустыня. Обитатели (2 часть).avi
32. Джунгли.avi
33. Джунгли. Обитатели. Животные.avi
34. Джунгли. Обитатели. Птицы.avi
35. Саванна.avi
36. Необычные морские обитатели.avi
37. Необычные морские обитатели.avi
38. Топографическая карта.avi
39. Географический кроссворд.avi
40. Политическая карта.avi
41. Россия (1 часть).avi
42. Россия (2 часть).avi
43. Государственный флаг и регионы.avi
44. Рисунки жителей Шишкиного Леса в национальных костюмах.avi
45. Украина.avi
46. Казахстан.avi
47. Белоруссия.avi
48. Великобритания.avi
49. Франция.avi
50. Германия.avi
51. Италия.avi
52. Соединённые Штаты Америки (1 часть).avi
53. Соединённые Штаты Америки (2 часть).avi
54. Япония.avi
55. Греция.avi
56. Финляндия.avi
57. Швейцария.avi
58. Нидерланды.avi
59. Израиль.avi
60. Китай.avi
61. Китай.avi
62. Индия.avi
63. Египет.avi
64. Индонезия.avi
65. Мексика.avi
66. Бразилия.avi
67. Чили.avi
68. Эквадор.avi
69. Гренландия и Исландия.avi
70. Канада.avi
71. Канада.avi
72. Турция.avi
73. Австралия.avi
74. Австралия.avi
75. Африка.avi
76. Памятка путешественнику.avi
77. Заключительная передача.avi
MediaInfo
Format: AVI
Format/Info: Audio Video Interleave
File size: 80.0 MiB
Duration: 7mn 37s
Overall bit rate mode: Variable
Overall bit rate: 1 467 Kbps
Writing application: VirtualDubMod 1.5.4.1 (build 2178/release)
Writing library: VirtualDubMod build 2178/release

Video
ID: 0
Format: MPEG-4 Visual
Format settings, BVOP: 1
Format settings, QPel: No
Format settings, GMC: No warppoints
Format settings, Matrix: Default (H.263)
Muxing mode: Packed bitstream
Codec ID: DX50
Codec ID/Hint: DivX 5
Duration: 7mn 37s
Bit rate: 1 347 Kbps
Width: 720 pixels
Height: 544 pixels
Display aspect ratio: 4:3
Frame rate: 25.000 fps
Color space: YUV
Chroma subsampling: 4:2:0
Bit depth: 8 bits
Scan type: Progressive
Compression mode: Lossy
Bits/(Pixel*Frame): 0.138
Stream size: 73.5 MiB (92%)
Writing library: DivX 6.8.5 (UTC 2009-08-20)

Audio
ID: 1
Format: MPEG Audio
Format version: Version 1
Format profile: Layer 3
Mode: Joint stereo
Mode extension: MS Stereo
Codec ID: 55
Codec ID/Hint: MP3
Duration: 7mn 37s
Bit rate mode: Variable
Bit rate: 107 Kbps
Channel count: 2 channels
Sampling rate: 48.0 KHz
Compression mode: Lossy
Stream size: 5.85 MiB (7%)
Alignment: Aligned on interleaves
Interleave, duration: 24 ms (0.60 video frame)
Interleave, preload duration: 501 ms[/pre]
Скриншоты
pic pic pic
Шишкина Школа. Музыка
Шишкина Школа. Математика
Шишкина Школа. Рисование
Шишкина Школа. Русский язык
Download

Войдите на сайт, чтобы увидеть полную информацию.

Как скачивать  ·   Правила трекера

[Профиль]  [ЛС] 

trash50

Стаж: 3 года 10 месяцев

Сообщений: 148

post 06-Янв-2016 20:28 (спустя 20 часов)

[Цитировать] 

Спасибо
[Профиль]  [ЛС] 
Показать сообщения:    
Ответить на тему

Текущее время: 19-Сен 11:16

Часовой пояс: GMT + 4



Вы не можете начинать темы
Вы не можете отвечать на сообщения
Вы не можете редактировать свои сообщения
Вы не можете удалять свои сообщения
Вы не можете голосовать в опросах
Вы не можете прикреплять файлы к сообщениям
Вы не можете скачивать файлы