Loading...
Error

(Песнопения знаменного и других древних распевов) Богослужебное пение старообрядцев Причудья - 1971, APE (image + .cue), lossless

Ответить на тему
 
Автор Сообщение

Andreas_M

Стаж: 1 год 11 месяцев

Сообщений: 1

post 01-Дек-2015 23:08

[Цитировать] 

Богослужебное пение старообрядцев Причудья

Страна: Россия
Жанр: Песнопения знаменного и других древних распевов
Год выпуска: 1971
Формат: APE (image + .cue)
Битрейт аудио: lossless
Продолжительность: 1:04
Трэклист:
Hidden: 
01 - Певческие традиции старообрядцев Причудья - Величание вознесению Господню (путевой роспев) исп.Малышев А.Е.
02 - Певческие традиции старообрядцев Причудья - Достойно есть (путевой роспев)
03 - Певческие традиции старообрядцев Причудья - Се тьма и рано, Евангельская стихера 7 гласа
04 - Певческие традиции старообрядцев Причудья - Наследниче Божий, стихера свт.Николе по 50-м псалме,6 глас
05 - Певческие традиции старообрядцев Причудья - Степенные антифоны 8 гласа 'Се коль добро и красно', 4-й антифон
06 - Певческие традиции старообрядцев Причудья - Чтение статьи в Неделю Всех святых
07 - Певческие традиции старообрядцев Причудья - Да отверзется дверь небесная, стихера Сретению Господню на Господи возвах
08 - Певческие традиции старообрядцев Причудья - Яко виде Исаия, ирмос 3 гласа, песнь5
09 - Певческие традиции старообрядцев Причудья - Свыше силу учеником, ирмос 7 гласа, песнь3
10 - Певческие традиции старообрядцев Причудья - Неизследну Божию совету, ирмос 4 гласа, песнь4
11 - Певческие традиции старообрядцев Причудья - С нами Бог, гимн на нефимоне, 8 глас
12 - Певческие традиции старообрядцев Причудья - Девая днесь, кондак Рождеству Христову, глас 3
13 - Певческие традиции старообрядцев Причудья - Стихеры Пасхи, глас 5
14 - Певческие традиции старообрядцев Причудья - Чтение Евангелия от Матфея на праздник Преображения Господня
15 - Певческие традиции старообрядцев Причудья - Гора еси Великая и преславная. Стихера Богородице, 7 глас, самогласно
16 - Певческие традиции старообрядцев Причудья - Взыде яко звезда. Кондак свт.Николе, 3 глас
17 - Певческие традиции старообрядцев Причудья - Возлюблю Тя, Господи. Слава №1 (исп. Каношин И.Т. и Аганич А.И.)
18 - Певческие традиции старообрядцев Причудья - Небеса поведают славу Божию. Слава №2 (исп. Гутова А.И.)
19 - Певческие традиции старообрядцев Причудья - Боже, Боже мой. Слава №3 (исп. Суворова Т.Н.)
20 - Певческие традиции старообрядцев Причудья - Хвлите Имя Господне, Полиелеос
21 - Певческие традиции старообрядцев Причудья - Яко виде Исаия, ирмос 3 гласа
22 - Певческие традиции старообрядцев Причудья - Глубине открыл есть дно, ирмос Богоявлению 2 гласа, песнь 1
23 - Певческие традиции старообрядцев Причудья - Елицы древних изрешихомся сетей, песнь 3
24 - Певческие традиции старообрядцев Причудья - Отче Наш, 6 глас
25 - Певческие традиции старообрядцев Причудья - Единородный Сын, глас 5
26 - Певческие традиции старообрядцев Причудья - Воскресение Христово видевше, глас 7
27 - Певческие традиции старообрядцев Причудья - Христос воскресе, тропарь Пасхи, глас 5
28 - Певческие традиции старообрядцев Причудья - Величание св. Кресту
29 - Певческие традиции старообрядцев Причудья - Величание апп. Петру и Павлу
30 - Певческие традиции старообрядцев Причудья - Чтение статьи 'Слово о снятии Господни со Креста и о погребении и о плаче Прс...
31 - Певческие традиции старообрядцев Причудья - Достойно есть, деместв. роспев (глубокий ламповый ремастеринг)
32 - Певческие традиции старообрядцев Причудья - Достойно есть, деместв. роспев (стандартный ламповый ремастеринг)
33 - Певческие традиции старообрядцев Причудья - Достойно есть, деместв. роспев. Прямая запись с мастер-ленты (без лампового р...


Дополнительная информация:
Hidden: 
Exact Audio Copy V0.99 prebeta 4 from 23. January 2008

Отчёт EAC об извлечении, выполненном 2. августа 2009, 14:17

Певческие традиции старообрядцев Причудья / Старообрядческие певческие традиции. Выпуск 1

Режим чтения : Достоверность

Использование точного потока : Да

Отключение кэша аудио : Да

Использование указателей C2 : Нет

Коррекция смещения при чтении : 667

Способность читать области Lead-in и Lead-out : Нет

Заполнение пропущенных сэмплов тишиной : Да

Удаление блоков с тишиной в начале и конце : Нет

При вычислениях CRC использовались нулевые сэмплы : Да

Выходной формат : Внутренние WAV-операции

Формат сэмплов : 44.100 Гц; 16 бит; стерео

Смещение при сжатии : 667

TOC извлечённого CD

Трек | Старт | Длительность | Начальный сектор | Конечный сектор
---------------------------------------------------------------------
1 | 0:00.00 | 1:16.40 | 0 | 5739
2 | 1:16.40 | 1:53.13 | 5740 | 14227
3 | 3:09.53 | 2:04.39 | 14228 | 23566
4 | 5:14.17 | 1:38.11 | 23567 | 30927
5 | 6:52.28 | 1:35.59 | 30928 | 38111
6 | 8:28.12 | 3:02.21 | 38112 | 51782
7 | 11:30.33 | 2:16.28 | 51783 | 62010
8 | 13:46.61 | 1:30.01 | 62011 | 68761
9 | 15:16.62 | 1:08.70 | 68762 | 73931
10 | 16:25.57 | 0:54.00 | 73932 | 77981
11 | 17:19.57 | 1:08.62 | 77982 | 83143
12 | 18:28.44 | 1:51.62 | 83144 | 91530
13 | 20:20.31 | 6:38.12 | 91531 | 121392
14 | 26:58.43 | 2:15.27 | 121393 | 131544
15 | 29:13.70 | 1:46.53 | 131545 | 139547
16 | 31:00.48 | 2:16.43 | 139548 | 149790
17 | 33:17.16 | 0:50.45 | 149791 | 153585
18 | 34:07.61 | 0:53.48 | 153586 | 157608
19 | 35:01.34 | 1:00.33 | 157609 | 162141
20 | 36:01.67 | 1:01.14 | 162142 | 166730
21 | 37:03.06 | 1:24.36 | 166731 | 173066
22 | 38:27.42 | 0:49.11 | 173067 | 176752
23 | 39:16.53 | 1:25.10 | 176753 | 183137
24 | 40:41.63 | 3:46.37 | 183138 | 200124
25 | 44:28.25 | 3:36.71 | 200125 | 216395
26 | 48:05.21 | 2:57.69 | 216396 | 229739
27 | 51:03.15 | 0:21.74 | 229740 | 231388
28 | 51:25.14 | 0:59.27 | 231389 | 235840
29 | 52:24.41 | 3:26.48 | 235841 | 251338
30 | 55:51.14 | 0:49.50 | 251339 | 255063
31 | 56:40.64 | 2:22.52 | 255064 | 265765
32 | 59:03.41 | 2:25.54 | 265766 | 276694
33 | 61:29.20 | 2:26.47 | 276695 | 287691

Характеристики диапазона извлечения и сообщения об ошибках
Выбранный диапазон

Имя файла D:\Аудио\Prichudie_[rutracker.org]\Певческие традиции старообрядцев Причудья - Старообрядческие певческие традиции. Выпуск 1.wav

Пиковый уровень 100.0 %
Качество диапазона 99.9 %
CRC копии 8DA4E829

Копирование... OK

Ошибок не произошло

AccurateRip: сводка

Трек 1 нет в базе данных
Трек 2 нет в базе данных
Трек 3 нет в базе данных
Трек 4 нет в базе данных
Трек 5 нет в базе данных
Трек 6 нет в базе данных
Трек 7 нет в базе данных
Трек 8 нет в базе данных
Трек 9 нет в базе данных
Трек 10 нет в базе данных
Трек 11 нет в базе данных
Трек 12 нет в базе данных
Трек 13 нет в базе данных
Трек 14 нет в базе данных
Трек 15 нет в базе данных
Трек 16 нет в базе данных
Трек 17 нет в базе данных
Трек 18 нет в базе данных
Трек 19 нет в базе данных
Трек 20 нет в базе данных
Трек 21 нет в базе данных
Трек 22 нет в базе данных
Трек 23 нет в базе данных
Трек 24 нет в базе данных
Трек 25 нет в базе данных
Трек 26 нет в базе данных
Трек 27 нет в базе данных
Трек 28 нет в базе данных
Трек 29 нет в базе данных
Трек 30 нет в базе данных
Трек 31 нет в базе данных
Трек 32 нет в базе данных
Трек 33 нет в базе данных

Ни одного трека нет в базе AccurateRip

Конец отчёта


[Профиль]  [ЛС] 
Показать сообщения:    
Ответить на тему

Текущее время: 24-Ноя 11:18

Часовой пояс: GMT + 4



Вы не можете начинать темы
Вы не можете отвечать на сообщения
Вы не можете редактировать свои сообщения
Вы не можете удалять свои сообщения
Вы не можете голосовать в опросах
Вы не можете прикреплять файлы к сообщениям
Вы не можете скачивать файлы