Loading...
Error

(православная песня) Александр Старостенко - Источник любви - 2014, FLAC (image + .cue), lossless

Ответить на тему
Статистика раздачи
   
 
Автор Сообщение

mpstudio

Стаж: 7 лет 6 месяцев

Сообщений: 16

Russia

post 10-Сен-2015 14:29

[Цитировать] 

Александр Старостенко - Источник любви

pic
Страна: Украина
Жанр: православная песня
Год выпуска: 2014
Формат: FLAC (image + .cue)
Битрейт аудио: lossless
Продолжительность: 58
Трэклист:

1. Уходит время 4.26
2. Матушка Ксения 3.29
3. Николай Чудотворец 3.51
4. Куда идёшь душа 4.12
5. Покаянная слеза 3.04
6. Бог сохранит 4.02
7. Дождись меня 3.42
8. Бог ты мой 4.15
9. Родительское сердце 5.46
10. Люблю тебя 4.32
11. Пресвятая Богородица 5.15
12. Источник любви 4.19
13. Вы простите меня 3.36
14. Верьте в чудеса 3.47

Дополнительная информация: Альбом сделан в студии ROSTMUSIC в 2014 году.
Запись вокала - студия звукозаписи "Кузница", г. Тверь.
Аранжировки, сведение и мастеринг - Ростислав Клапан.
Гитара, скрипка - Евгений Касьяненко.
Флейта, сопилка - Александр Гусак.
Бэк вокал - Любовь Клапан, Ростислав Клапан, Евгений Касьяненко.
Аккордеон - Ростислав Клапан.
Лог создания рипа
Exact Audio Copy V1.1 from 23. June 2015

Отчёт EAC об извлечении, выполненном 10. сентября 2015, 12:25

Александр Старостенко / Источник Любви

Дисковод: SlimtypeeTAU108 3 Adapter: 1 ID: 0

Режим чтения : Достоверность
Использование точного потока : Да
Отключение кэша аудио : Да
Использование указателей C2 : Нет

Коррекция смещения при чтении : 6
Способность читать области Lead-in и Lead-out : Нет
Заполнение пропущенных сэмплов тишиной : Да
Удаление блоков с тишиной в начале и конце : Нет
При вычислениях CRC использовались нулевые сэмплы : Да
Интерфейс : Встроенный Win32-интерфейс для Win NT/2000

Выходной формат : Пользовательский кодировщик
Выбранный битрейт : 768 kBit/s
Качество : Высокий
Добавление ID3-тега : Нет
Утилита сжатия : C:\Program Files (x86)\Exact Audio Copy\FLAC\FLAC.EXE
Дополнительные параметры : -6 -V -T "ARTIST=%artist%" -T "TITLE=%title%" -T "ALBUM=%albumtitle%" -T "DATE=%year%" -T "TRACKNUMBER=%tracknr%" -T "GENRE=%genre%" -T "COMMENT=%comment%" -T "BAND=%albuminterpret%" -T "ALBUMARTIST=%albuminterpret%" -T "COMPOSER=%composer%" %haslyrics%--tag-from-file=LYRICS="%lyricsfile%"%haslyrics% -T "DISCNUMBER=%cdnumber%" -T "TOTALDISCS=%totalcds%" -T "TOTALTRACKS=%numtracks%" %hascover%--picture="%coverfile%"%hascover% %source% -o %dest%

TOC извлечённого CD

Трек | Старт | Длительность | Начальный сектор | Конечный сектор
---------------------------------------------------------------------
1 | 0:00.00 | 4:26.03 | 0 | 19952
2 | 4:26.03 | 3:28.45 | 19953 | 35597
3 | 7:54.48 | 3:51.26 | 35598 | 52948
4 | 11:45.74 | 4:11.43 | 52949 | 71816
5 | 15:57.42 | 3:03.51 | 71817 | 85592
6 | 19:01.18 | 4:01.71 | 85593 | 103738
7 | 23:03.14 | 3:42.22 | 103739 | 120410
8 | 26:45.36 | 4:15.02 | 120411 | 139537
9 | 31:00.38 | 5:46.17 | 139538 | 165504
10 | 36:46.55 | 4:32.29 | 165505 | 185933
11 | 41:19.09 | 5:14.58 | 185934 | 209541
12 | 46:33.67 | 4:18.39 | 209542 | 228930
13 | 50:52.31 | 3:36.13 | 228931 | 245143
14 | 54:28.44 | 3:46.41 | 245144 | 262134

Характеристики диапазона извлечения и сообщения об ошибках

Выбранный диапазон

Имя файла H:\Downloads\Александр Старостенко - Источник Любви.wav

Пиковый уровень 100.0 %
Скорость извлечения 2.1 X
Качество диапазона 100.0 %
CRC теста 3B6BB0C4
CRC копии 3B6BB0C4
Копирование... OK

Ошибок не произошло

AccurateRip: сводка
Трек 1 отсутствует в базе данных
Трек 2 отсутствует в базе данных
Трек 3 отсутствует в базе данных
Трек 4 отсутствует в базе данных
Трек 5 отсутствует в базе данных
Трек 6 отсутствует в базе данных
Трек 7 отсутствует в базе данных
Трек 8 отсутствует в базе данных
Трек 9 отсутствует в базе данных
Трек 10 отсутствует в базе данных
Трек 11 отсутствует в базе данных
Трек 12 отсутствует в базе данных
Трек 13 отсутствует в базе данных
Трек 14 отсутствует в базе данных
Ни одного трека нет в базе AccurateRip

Конец отчёта

---- CUETools DB Plugin V2.1.6

[CTDB TOCID: HH3xo.s8qITeQrpfJTMkSc2GJIk-] disk not present in database
Submit result: HH3xo.s8qITeQrpfJTMkSc2GJIk- has been uploaded

==== Контрольная сумма отчёта 420DEB7685AB41CE32EB5A9FE3FE12F70CA0E246BF135D2AF31A26E3451DF66C ====
Обложки
pic
pic
pic
pic
pic
Download

Войдите на сайт, чтобы увидеть полную информацию.

Как скачивать  ·   Правила трекера

[Профиль]  [ЛС] 

CEPBEP4

Стаж: 6 лет 6 месяцев

Сообщений: 133

Откуда: ОРЕНБУРГ

Russia

post 13-Сен-2015 12:25 (спустя 2 дня 21 час)

[Цитировать] 

Спасибо большое!

_________________
pic
pic 100 Мбит/с pic 100 Мбит/с pic
[Профиль]  [ЛС] 

post 27-Сен-2015 12:01 (спустя 13 дней)

Топик был перенесен из форума Песни авторов и исполнителей (lossless) в форум Раздачи, закрытые по просьбе правообладателей

Academic Crack
 
Показать сообщения:    
Ответить на тему

Текущее время: 23-Сен 23:59

Часовой пояс: GMT + 4



Вы не можете начинать темы
Вы не можете отвечать на сообщения
Вы не можете редактировать свои сообщения
Вы не можете удалять свои сообщения
Вы не можете голосовать в опросах
Вы не можете прикреплять файлы к сообщениям
Вы не можете скачивать файлы