Loading...
Error

Господи, благослови! Введение в Православную культуру. Методические указания (рекомендации) к занятиям. Архимандрит Амвросий (Юрасов) (Фонд "Вознесение", г. Иваново, Россия) [2007 г., Православная проповедь, беседа, DVD5]

Ответить на тему
Статистика раздачи
Скачали: [ 3 ]
   
 
Автор Сообщение

Р.Б.А

Стаж: 7 лет

Сообщений: 2678

Russia

post 22-Авг-2015 23:17

[Цитировать] 

Господи, благослови! Введение в Православную культуру. Методические указания (рекомендации) к занятиям. Архимандрит Амвросий (Юрасов)

pic
Год выпуска: 2007
Жанр: Православная проповедь, беседа
Продолжительность: 00:46:16

Издатель: Фонд "Вознесение", г. Иваново, Россия

В фильме снимались: Архимандрит Амвросий (Юрасов)

Описание: Господи, благослови! Введение в Православную культуру. Методические указания (рекомендации) к занятиям. По книге архимандрита Амвросия (Юрасова).

Архимандрит Амвросий (Юрасов) - духовник православного братства "Радонеж", основатель и духовник Свято-Введенского женского монастыря г. Иваново, духовник Совета ветеранов ЦА МВД РФ, автор книг о вере и спасении.

Дополнительная информация: "Потерял богатство - ничего не потерял, потерял здоровье - половину потерял, потерял веру в Бога - всё потерял".

Качество: DVD5
Формат: DVD Video
Видео кодек: MPEG2
Аудио кодек: MPEG Audio
Видео: 720*576 (4:3), 7545 Кбит/сек, 25,000 кадров/сек
Аудио: 224 Кбит/сек, 48,0 КГц, 2 канала
Список уроков/занятий
Господи, благослови! Введение в Православную культуру. Методические указания (рекомендации) к занятиям. Архимандрит Амвросий (Юрасов)

1. Первый урок (Занятие первое)
Какой Бог? (По рассказам: "Кто создал человека?", "Какой Бог?")

2. Второй урок (Занятие второе)
Как Господь создал человека? (По рассказам: "Чем мама отличается от коровы?", "Как Господь создал человека?", "Что такое Рай?")

3. Третий урок (Занятие третье)
Молитва (По рассказам: "Господь всё видит", "Господи, благослови!", "Молитва", "Я за тебя молюсь", "Пост")

4. Четвёртый урок (Занятие четвёртое)
Ангел Хранитель и Святой, чьё имя мы носим (По рассказу: "Имя")

5. Пятый урок (Занятие пятое)
Исповедь и Причастие (По рассказам: "Исповедь", "Причастие", "Девочка")
Скриншоты
pic pic pic pic pic pic pic
Скриншот меню
pic
MediaInfo
Общее
Полное имя : E:\Русь Святая! Храни Веру Православную!\Архимандрит Амвросий (Юрасов)\Господи, благослови!\VIDEO_TS\VIDEO_TS.BUP
Формат : DVD Video
Профиль формата : Menu
Размер файла : 14,0 Кбайт
Режим общего битрейта : Переменный

Видео
Идентификатор : 224 (0xE0)
Формат : MPEG Video
Версия формата : Version 2
Вид битрейта : Переменный
Ширина : 720 пикселей
Высота : 576 пикселей
Соотношение сторон : 4:3
Частота кадров : 25,000 кадров/сек
Стандарт вещания : PAL
Метод сжатия : С потерями

Текст
Формат : RLE
Формат/Информация : Run-length encoding
Битовая глубина : 2 бит

Общее
Полное имя : E:\Русь Святая! Храни Веру Православную!\Архимандрит Амвросий (Юрасов)\Господи, благослови!\VIDEO_TS\VIDEO_TS.IFO
Формат : DVD Video
Профиль формата : Menu
Размер файла : 14,0 Кбайт
Режим общего битрейта : Переменный

Видео
Идентификатор : 224 (0xE0)
Формат : MPEG Video
Версия формата : Version 2
Вид битрейта : Переменный
Ширина : 720 пикселей
Высота : 576 пикселей
Соотношение сторон : 4:3
Частота кадров : 25,000 кадров/сек
Стандарт вещания : PAL
Метод сжатия : С потерями

Текст
Формат : RLE
Формат/Информация : Run-length encoding
Битовая глубина : 2 бит

Общее
Полное имя : E:\Русь Святая! Храни Веру Православную!\Архимандрит Амвросий (Юрасов)\Господи, благослови!\VIDEO_TS\VIDEO_TS.VOB
Формат : MPEG-PS
Размер файла : 162 Кбайт
Продолжительность : 40 мс.
Режим общего битрейта : Переменный
Общий поток : 33,2 Мбит/сек
Библиотека кодирования : Created with Nero

Видео
Идентификатор : 224 (0xE0)
Формат : MPEG Video
Версия формата : Version 2
Профиль формата : Main@Main
Параметр BVOP формата : Нет
Параметр матрицы формата : По умолчанию
Продолжительность : 40 мс.
Вид битрейта : Переменный
Максимальный битрейт : 9610 Кбит/сек
Ширина : 720 пикселей
Высота : 576 пикселей
Соотношение сторон : 4:3
Частота кадров : 25,000 кадров/сек
Стандарт вещания : PAL
Цветовое пространство : YUV
Субдискретизация насыщенности : 4:2:0
Битовая глубина : 8 бит
Тип развёртки : Прогрессивная
Порядок развёртки : Верхнее поле первое
Метод сжатия : С потерями
Временной код первого кадра : 00:00:00:01
Оригинал временного кода : Group of pictures header
Библиотека кодирования : Ahead Nero

Текст
Идентификатор : 189 (0xBD)-32 (0x20)
Формат : RLE
Формат/Информация : Run-length encoding
Режим смешивания : DVD-Video

Меню

Общее
Полное имя : E:\Русь Святая! Храни Веру Православную!\Архимандрит Амвросий (Юрасов)\Господи, благослови!\VIDEO_TS\VTS_01_0.BUP
Формат : DVD Video
Профиль формата : Program
Размер файла : 20,0 Кбайт
Продолжительность : 10 м.
Режим общего битрейта : Переменный
Общий поток : 254 бит/сек

Видео
Идентификатор : 224 (0xE0)
Формат : MPEG Video
Версия формата : Version 2
Продолжительность : 10 м.
Вид битрейта : Переменный
Ширина : 720 пикселей
Высота : 576 пикселей
Соотношение сторон : 4:3
Частота кадров : 25,000 кадров/сек
Стандарт вещания : PAL
Метод сжатия : С потерями

Аудио
Идентификатор : 0 (0x0)
Формат : MPEG Audio
Профиль формата : Version 1
Продолжительность : 10 м.
Каналы : 2 канала
Частота : 48,0 КГц
Метод сжатия : С потерями

Меню
Продолжительность : 10 м.
00:00:00.000 : Chapter 1
List (Audio) : 0

Общее
Полное имя : E:\Русь Святая! Храни Веру Православную!\Архимандрит Амвросий (Юрасов)\Господи, благослови!\VIDEO_TS\VTS_01_0.IFO
Формат : DVD Video
Профиль формата : Program
Размер файла : 20,0 Кбайт
Продолжительность : 10 м.
Режим общего битрейта : Переменный
Общий поток : 254 бит/сек

Видео
Идентификатор : 224 (0xE0)
Формат : MPEG Video
Версия формата : Version 2
Продолжительность : 10 м.
Вид битрейта : Переменный
Ширина : 720 пикселей
Высота : 576 пикселей
Соотношение сторон : 4:3
Частота кадров : 25,000 кадров/сек
Стандарт вещания : PAL
Метод сжатия : С потерями

Аудио
Идентификатор : 0 (0x0)
Формат : MPEG Audio
Профиль формата : Version 1
Продолжительность : 10 м.
Каналы : 2 канала
Частота : 48,0 КГц
Метод сжатия : С потерями

Меню
Продолжительность : 10 м.
00:00:00.000 : Chapter 1
List (Audio) : 0

Общее
Полное имя : E:\Русь Святая! Храни Веру Православную!\Архимандрит Амвросий (Юрасов)\Господи, благослови!\VIDEO_TS\VTS_01_1.VOB
Формат : MPEG-PS
Размер файла : 612 Мбайт
Продолжительность : 10 м.
Режим общего битрейта : Переменный
Общий поток : 7954 Кбит/сек
Библиотека кодирования : Created with Nero

Видео
Идентификатор : 224 (0xE0)
Формат : MPEG Video
Версия формата : Version 2
Профиль формата : Main@Main
Параметр BVOP формата : Да
Параметр матрицы формата : По умолчанию
Параметр GOP формата : M=3, N=15
Format_Settings_PictureStructure : Frame
Продолжительность : 10 м.
Вид битрейта : Переменный
Битрейт : 7572 Кбит/сек
Максимальный битрейт : 9610 Кбит/сек
Ширина : 720 пикселей
Высота : 576 пикселей
Соотношение сторон : 4:3
Частота кадров : 25,000 кадров/сек
Стандарт вещания : PAL
Цветовое пространство : YUV
Субдискретизация насыщенности : 4:2:0
Битовая глубина : 8 бит
Тип развёртки : Чересстрочная
Порядок развёртки : Нижнее поле первое
Метод сжатия : С потерями
Бит/(Пиксели*Кадры) : 0.730
Временной код первого кадра : 00:00:00:00
Оригинал временного кода : Group of pictures header
Размер потока : 583 Мбайт (95%)
Библиотека кодирования : Ahead Nero
Gop_OpenClosed_FirstFrame : Closed

Аудио
Идентификатор : 192 (0xC0)
Формат : MPEG Audio
Версия формата : Version 1
Профиль формата : Layer 2
Продолжительность : 10 м.
Вид битрейта : Постоянный
Битрейт : 224 Кбит/сек
Каналы : 2 канала
Частота : 48,0 КГц
Метод сжатия : С потерями
Размер потока : 17,2 Мбайт (3%)

Меню

Общее
Полное имя : E:\Русь Святая! Храни Веру Православную!\Архимандрит Амвросий (Юрасов)\Господи, благослови!\VIDEO_TS\VTS_02_0.BUP
Формат : DVD Video
Профиль формата : Program
Размер файла : 18,0 Кбайт
Продолжительность : 9 м. 48 с.
Режим общего битрейта : Переменный
Общий поток : 250 бит/сек

Видео
Идентификатор : 224 (0xE0)
Формат : MPEG Video
Версия формата : Version 2
Продолжительность : 9 м. 48 с.
Вид битрейта : Переменный
Ширина : 720 пикселей
Высота : 576 пикселей
Соотношение сторон : 4:3
Частота кадров : 25,000 кадров/сек
Стандарт вещания : PAL
Метод сжатия : С потерями

Аудио
Идентификатор : 0 (0x0)
Формат : MPEG Audio
Профиль формата : Version 1
Продолжительность : 9 м. 48 с.
Каналы : 2 канала
Частота : 48,0 КГц
Метод сжатия : С потерями

Меню
Продолжительность : 9 м. 48 с.
00:00:00.000 : Chapter 1
List (Audio) : 0

Общее
Полное имя : E:\Русь Святая! Храни Веру Православную!\Архимандрит Амвросий (Юрасов)\Господи, благослови!\VIDEO_TS\VTS_02_0.IFO
Формат : DVD Video
Профиль формата : Program
Размер файла : 18,0 Кбайт
Продолжительность : 9 м. 48 с.
Режим общего битрейта : Переменный
Общий поток : 250 бит/сек

Видео
Идентификатор : 224 (0xE0)
Формат : MPEG Video
Версия формата : Version 2
Продолжительность : 9 м. 48 с.
Вид битрейта : Переменный
Ширина : 720 пикселей
Высота : 576 пикселей
Соотношение сторон : 4:3
Частота кадров : 25,000 кадров/сек
Стандарт вещания : PAL
Метод сжатия : С потерями

Аудио
Идентификатор : 0 (0x0)
Формат : MPEG Audio
Профиль формата : Version 1
Продолжительность : 9 м. 48 с.
Каналы : 2 канала
Частота : 48,0 КГц
Метод сжатия : С потерями

Меню
Продолжительность : 9 м. 48 с.
00:00:00.000 : Chapter 1
List (Audio) : 0

Общее
Полное имя : E:\Русь Святая! Храни Веру Православную!\Архимандрит Амвросий (Юрасов)\Господи, благослови!\VIDEO_TS\VTS_02_1.VOB
Формат : MPEG-PS
Размер файла : 556 Мбайт
Продолжительность : 9 м. 48 с.
Режим общего битрейта : Переменный
Общий поток : 7925 Кбит/сек
Библиотека кодирования : Created with Nero

Видео
Идентификатор : 224 (0xE0)
Формат : MPEG Video
Версия формата : Version 2
Профиль формата : Main@Main
Параметр BVOP формата : Да
Параметр матрицы формата : По умолчанию
Параметр GOP формата : M=3, N=15
Format_Settings_PictureStructure : Frame
Продолжительность : 9 м. 48 с.
Вид битрейта : Переменный
Битрейт : 7543 Кбит/сек
Максимальный битрейт : 9610 Кбит/сек
Ширина : 720 пикселей
Высота : 576 пикселей
Соотношение сторон : 4:3
Частота кадров : 25,000 кадров/сек
Стандарт вещания : PAL
Цветовое пространство : YUV
Субдискретизация насыщенности : 4:2:0
Битовая глубина : 8 бит
Тип развёртки : Чересстрочная
Порядок развёртки : Нижнее поле первое
Метод сжатия : С потерями
Бит/(Пиксели*Кадры) : 0.728
Временной код первого кадра : 00:00:00:00
Оригинал временного кода : Group of pictures header
Размер потока : 529 Мбайт (95%)
Библиотека кодирования : Ahead Nero
Gop_OpenClosed_FirstFrame : Closed

Аудио
Идентификатор : 192 (0xC0)
Формат : MPEG Audio
Версия формата : Version 1
Профиль формата : Layer 2
Продолжительность : 9 м. 48 с.
Вид битрейта : Постоянный
Битрейт : 224 Кбит/сек
Каналы : 2 канала
Частота : 48,0 КГц
Метод сжатия : С потерями
Размер потока : 15,7 Мбайт (3%)

Меню

Общее
Полное имя : E:\Русь Святая! Храни Веру Православную!\Архимандрит Амвросий (Юрасов)\Господи, благослови!\VIDEO_TS\VTS_03_0.BUP
Формат : DVD Video
Профиль формата : Program
Размер файла : 18,0 Кбайт
Продолжительность : 9 м. 59 с.
Режим общего битрейта : Переменный
Общий поток : 246 бит/сек

Видео
Идентификатор : 224 (0xE0)
Формат : MPEG Video
Версия формата : Version 2
Продолжительность : 9 м. 59 с.
Вид битрейта : Переменный
Ширина : 720 пикселей
Высота : 576 пикселей
Соотношение сторон : 4:3
Частота кадров : 25,000 кадров/сек
Стандарт вещания : PAL
Метод сжатия : С потерями

Аудио
Идентификатор : 0 (0x0)
Формат : MPEG Audio
Профиль формата : Version 1
Продолжительность : 9 м. 59 с.
Каналы : 2 канала
Частота : 48,0 КГц
Метод сжатия : С потерями

Меню
Продолжительность : 9 м. 59 с.
00:00:00.000 : Chapter 1
List (Audio) : 0

Общее
Полное имя : E:\Русь Святая! Храни Веру Православную!\Архимандрит Амвросий (Юрасов)\Господи, благослови!\VIDEO_TS\VTS_03_0.IFO
Формат : DVD Video
Профиль формата : Program
Размер файла : 18,0 Кбайт
Продолжительность : 9 м. 59 с.
Режим общего битрейта : Переменный
Общий поток : 246 бит/сек

Видео
Идентификатор : 224 (0xE0)
Формат : MPEG Video
Версия формата : Version 2
Продолжительность : 9 м. 59 с.
Вид битрейта : Переменный
Ширина : 720 пикселей
Высота : 576 пикселей
Соотношение сторон : 4:3
Частота кадров : 25,000 кадров/сек
Стандарт вещания : PAL
Метод сжатия : С потерями

Аудио
Идентификатор : 0 (0x0)
Формат : MPEG Audio
Профиль формата : Version 1
Продолжительность : 9 м. 59 с.
Каналы : 2 канала
Частота : 48,0 КГц
Метод сжатия : С потерями

Меню
Продолжительность : 9 м. 59 с.
00:00:00.000 : Chapter 1
List (Audio) : 0

Общее
Полное имя : E:\Русь Святая! Храни Веру Православную!\Архимандрит Амвросий (Юрасов)\Господи, благослови!\VIDEO_TS\VTS_03_1.VOB
Формат : MPEG-PS
Размер файла : 566 Мбайт
Продолжительность : 9 м. 59 с.
Режим общего битрейта : Переменный
Общий поток : 7914 Кбит/сек
Библиотека кодирования : Created with Nero

Видео
Идентификатор : 224 (0xE0)
Формат : MPEG Video
Версия формата : Version 2
Профиль формата : Main@Main
Параметр BVOP формата : Да
Параметр матрицы формата : По умолчанию
Параметр GOP формата : M=3, N=15
Format_Settings_PictureStructure : Frame
Продолжительность : 9 м. 59 с.
Вид битрейта : Переменный
Битрейт : 7533 Кбит/сек
Максимальный битрейт : 9610 Кбит/сек
Ширина : 720 пикселей
Высота : 576 пикселей
Соотношение сторон : 4:3
Частота кадров : 25,000 кадров/сек
Стандарт вещания : PAL
Цветовое пространство : YUV
Субдискретизация насыщенности : 4:2:0
Битовая глубина : 8 бит
Тип развёртки : Чересстрочная
Порядок развёртки : Нижнее поле первое
Метод сжатия : С потерями
Бит/(Пиксели*Кадры) : 0.727
Временной код первого кадра : 00:00:00:00
Оригинал временного кода : Group of pictures header
Размер потока : 539 Мбайт (95%)
Библиотека кодирования : Ahead Nero
Gop_OpenClosed_FirstFrame : Closed

Аудио
Идентификатор : 192 (0xC0)
Формат : MPEG Audio
Версия формата : Version 1
Профиль формата : Layer 2
Продолжительность : 9 м. 59 с.
Вид битрейта : Постоянный
Битрейт : 224 Кбит/сек
Каналы : 2 канала
Частота : 48,0 КГц
Метод сжатия : С потерями
Размер потока : 16,0 Мбайт (3%)

Меню

Общее
Полное имя : E:\Русь Святая! Храни Веру Православную!\Архимандрит Амвросий (Юрасов)\Господи, благослови!\VIDEO_TS\VTS_04_0.BUP
Формат : DVD Video
Профиль формата : Program
Размер файла : 16,0 Кбайт
Продолжительность : 5 м. 24 с.
Режим общего битрейта : Переменный
Общий поток : 404 бит/сек

Видео
Идентификатор : 224 (0xE0)
Формат : MPEG Video
Версия формата : Version 2
Продолжительность : 5 м. 24 с.
Вид битрейта : Переменный
Ширина : 720 пикселей
Высота : 576 пикселей
Соотношение сторон : 4:3
Частота кадров : 25,000 кадров/сек
Стандарт вещания : PAL
Метод сжатия : С потерями

Аудио
Идентификатор : 0 (0x0)
Формат : MPEG Audio
Профиль формата : Version 1
Продолжительность : 5 м. 24 с.
Каналы : 2 канала
Частота : 48,0 КГц
Метод сжатия : С потерями

Меню
Продолжительность : 5 м. 24 с.
00:00:00.000 : Chapter 1
List (Audio) : 0

Общее
Полное имя : E:\Русь Святая! Храни Веру Православную!\Архимандрит Амвросий (Юрасов)\Господи, благослови!\VIDEO_TS\VTS_04_0.IFO
Формат : DVD Video
Профиль формата : Program
Размер файла : 16,0 Кбайт
Продолжительность : 5 м. 24 с.
Режим общего битрейта : Переменный
Общий поток : 404 бит/сек

Видео
Идентификатор : 224 (0xE0)
Формат : MPEG Video
Версия формата : Version 2
Продолжительность : 5 м. 24 с.
Вид битрейта : Переменный
Ширина : 720 пикселей
Высота : 576 пикселей
Соотношение сторон : 4:3
Частота кадров : 25,000 кадров/сек
Стандарт вещания : PAL
Метод сжатия : С потерями

Аудио
Идентификатор : 0 (0x0)
Формат : MPEG Audio
Профиль формата : Version 1
Продолжительность : 5 м. 24 с.
Каналы : 2 канала
Частота : 48,0 КГц
Метод сжатия : С потерями

Меню
Продолжительность : 5 м. 24 с.
00:00:00.000 : Chapter 1
List (Audio) : 0

Общее
Полное имя : E:\Русь Святая! Храни Веру Православную!\Архимандрит Амвросий (Юрасов)\Господи, благослови!\VIDEO_TS\VTS_04_1.VOB
Формат : MPEG-PS
Размер файла : 304 Мбайт
Продолжительность : 5 м. 24 с.
Режим общего битрейта : Переменный
Общий поток : 7863 Кбит/сек
Библиотека кодирования : Created with Nero

Видео
Идентификатор : 224 (0xE0)
Формат : MPEG Video
Версия формата : Version 2
Профиль формата : Main@Main
Параметр BVOP формата : Да
Параметр матрицы формата : По умолчанию
Параметр GOP формата : M=3, N=15
Format_Settings_PictureStructure : Frame
Продолжительность : 5 м. 24 с.
Вид битрейта : Переменный
Битрейт : 7483 Кбит/сек
Максимальный битрейт : 9610 Кбит/сек
Ширина : 720 пикселей
Высота : 576 пикселей
Соотношение сторон : 4:3
Частота кадров : 25,000 кадров/сек
Стандарт вещания : PAL
Цветовое пространство : YUV
Субдискретизация насыщенности : 4:2:0
Битовая глубина : 8 бит
Тип развёртки : Чересстрочная
Порядок развёртки : Нижнее поле первое
Метод сжатия : С потерями
Бит/(Пиксели*Кадры) : 0.722
Временной код первого кадра : 00:00:00:00
Оригинал временного кода : Group of pictures header
Размер потока : 289 Мбайт (95%)
Библиотека кодирования : Ahead Nero
Gop_OpenClosed_FirstFrame : Closed

Аудио
Идентификатор : 192 (0xC0)
Формат : MPEG Audio
Версия формата : Version 1
Профиль формата : Layer 2
Продолжительность : 5 м. 24 с.
Вид битрейта : Постоянный
Битрейт : 224 Кбит/сек
Каналы : 2 канала
Частота : 48,0 КГц
Метод сжатия : С потерями
Размер потока : 8,66 Мбайт (3%)

Меню

Общее
Полное имя : E:\Русь Святая! Храни Веру Православную!\Архимандрит Амвросий (Юрасов)\Господи, благослови!\VIDEO_TS\VTS_05_0.BUP
Формат : DVD Video
Профиль формата : Program
Размер файла : 20,0 Кбайт
Продолжительность : 10 м.
Режим общего битрейта : Переменный
Общий поток : 265 бит/сек

Видео
Идентификатор : 224 (0xE0)
Формат : MPEG Video
Версия формата : Version 2
Продолжительность : 10 м.
Вид битрейта : Переменный
Ширина : 720 пикселей
Высота : 576 пикселей
Соотношение сторон : 4:3
Частота кадров : 25,000 кадров/сек
Стандарт вещания : PAL
Метод сжатия : С потерями

Аудио
Идентификатор : 0 (0x0)
Формат : MPEG Audio
Профиль формата : Version 1
Продолжительность : 10 м.
Каналы : 2 канала
Частота : 48,0 КГц
Метод сжатия : С потерями

Меню
Продолжительность : 10 м.
00:00:00.000 : Chapter 1
List (Audio) : 0

Общее
Полное имя : E:\Русь Святая! Храни Веру Православную!\Архимандрит Амвросий (Юрасов)\Господи, благослови!\VIDEO_TS\VTS_05_0.IFO
Формат : DVD Video
Профиль формата : Program
Размер файла : 20,0 Кбайт
Продолжительность : 10 м.
Режим общего битрейта : Переменный
Общий поток : 265 бит/сек

Видео
Идентификатор : 224 (0xE0)
Формат : MPEG Video
Версия формата : Version 2
Продолжительность : 10 м.
Вид битрейта : Переменный
Ширина : 720 пикселей
Высота : 576 пикселей
Соотношение сторон : 4:3
Частота кадров : 25,000 кадров/сек
Стандарт вещания : PAL
Метод сжатия : С потерями

Аудио
Идентификатор : 0 (0x0)
Формат : MPEG Audio
Профиль формата : Version 1
Продолжительность : 10 м.
Каналы : 2 канала
Частота : 48,0 КГц
Метод сжатия : С потерями

Меню
Продолжительность : 10 м.
00:00:00.000 : Chapter 1
List (Audio) : 0

Общее
Полное имя : E:\Русь Святая! Храни Веру Православную!\Архимандрит Амвросий (Юрасов)\Господи, благослови!\VIDEO_TS\VTS_05_1.VOB
Формат : MPEG-PS
Размер файла : 585 Мбайт
Продолжительность : 10 м.
Режим общего битрейта : Переменный
Общий поток : 7945 Кбит/сек
Библиотека кодирования : Created with Nero

Видео
Идентификатор : 224 (0xE0)
Формат : MPEG Video
Версия формата : Version 2
Профиль формата : Main@Main
Параметр BVOP формата : Да
Параметр матрицы формата : По умолчанию
Параметр GOP формата : M=3, N=15
Format_Settings_PictureStructure : Frame
Продолжительность : 10 м.
Вид битрейта : Переменный
Битрейт : 7563 Кбит/сек
Максимальный битрейт : 9610 Кбит/сек
Ширина : 720 пикселей
Высота : 576 пикселей
Соотношение сторон : 4:3
Частота кадров : 25,000 кадров/сек
Стандарт вещания : PAL
Цветовое пространство : YUV
Субдискретизация насыщенности : 4:2:0
Битовая глубина : 8 бит
Тип развёртки : Чересстрочная
Порядок развёртки : Нижнее поле первое
Метод сжатия : С потерями
Бит/(Пиксели*Кадры) : 0.729
Временной код первого кадра : 00:00:00:00
Оригинал временного кода : Group of pictures header
Размер потока : 557 Мбайт (95%)
Библиотека кодирования : Ahead Nero
Gop_OpenClosed_FirstFrame : Closed

Аудио
Идентификатор : 192 (0xC0)
Формат : MPEG Audio
Версия формата : Version 1
Профиль формата : Layer 2
Продолжительность : 10 м.
Вид битрейта : Постоянный
Битрейт : 224 Кбит/сек
Каналы : 2 канала
Частота : 48,0 КГц
Метод сжатия : С потерями
Размер потока : 16,5 Мбайт (3%)

Меню
DVDInfo
Title: Господи, благослови!
Size: 2.56 Gb ( 2 686 988,00 KBytes ) - DVD-5
Enabled regions: 1, 2, 3, 4, 5, 6, 7, 8

VTS_01 :
Play Length: 00:10:45
Video: PAL 4:3 (720x576) VBR
Audio:
Not specified (MPEG1, 2 ch)

VTS_02 :
Play Length: 00:09:48
Video: PAL 4:3 (720x576) VBR
Audio:
Not specified (MPEG1, 2 ch)

VTS_03 :
Play Length: 00:09:59
Video: PAL 4:3 (720x576) VBR
Audio:
Not specified (MPEG1, 2 ch)

VTS_04 :
Play Length: 00:05:24
Video: PAL 4:3 (720x576) VBR
Audio:
Not specified (MPEG1, 2 ch)

VTS_05 :
Play Length: 00:10:18
Video: PAL 4:3 (720x576) VBR
Audio:
Not specified (MPEG1, 2 ch)

* Menus Information *

VIDEO_TS Menu
Video:
PAL 4:3 (720x576) VBR
Language Unit :
Title Menu

VTS_01 Menu
Video:
NTSC 4:3 (720x480) VBR
Auto Pan&Scan, Auto Letterboxed
Language Unit :
Root Menu

VTS_02 Menu
Video:
NTSC 4:3 (720x480) VBR
Auto Pan&Scan, Auto Letterboxed
Language Unit :
Root Menu

VTS_03 Menu
Video:
NTSC 4:3 (720x480) VBR
Auto Pan&Scan, Auto Letterboxed
Language Unit :
Root Menu

VTS_04 Menu
Video:
NTSC 4:3 (720x480) VBR
Auto Pan&Scan, Auto Letterboxed
Language Unit :
Root Menu

VTS_05 Menu
Video:
NTSC 4:3 (720x480) VBR
Auto Pan&Scan, Auto Letterboxed
Language Unit :
Root Menu
Download

Войдите для скачивания торрент-файла

Как скачивать  ·   Правила трекера


_________________
picpic
[Профиль]  [ЛС] 

---!!!

Стаж: 1 год 9 месяцев

Сообщений: 594

Russia

post 25-Авг-2015 02:12 (спустя 2 дня 2 часа)

[Цитировать] 

Спасибо!
[Профиль]  [ЛС] 

Р.Б.А

Стаж: 7 лет

Сообщений: 2678

Russia

post 25-Авг-2015 04:29 (спустя 2 часа 17 минут)

[Цитировать] 

---!!!, пожалуйста! Во Славу Божию!

_________________
picpic
[Профиль]  [ЛС] 
Показать сообщения:    
Ответить на тему

Текущее время: 25-Май 22:22

Часовой пояс: GMT + 4



Вы не можете начинать темы
Вы не можете отвечать на сообщения
Вы не можете редактировать свои сообщения
Вы не можете удалять свои сообщения
Вы не можете голосовать в опросах
Вы не можете прикреплять файлы к сообщениям
Вы не можете скачивать файлы