Loading...
Error

(Остальная музыка.) "Песнопения Малой, Белой и Великой Руси". Архиерейский хор Преображенского Кафедрального Собора г. Белгород. - 1998, APE (image + .cue), lossless

Ответить на тему
Статистика раздачи
   
 
Автор Сообщение

СЕРГУЛЕТ

Стаж: 8 лет 8 месяцев

Сообщений: 2640

Откуда: LA ROMANA

Dominicanrep

post 27-Дек-2009 13:52

[Цитировать] 

"Песнопения Малой, Белой и Великой Руси". Архиерейский хор Преображенского Кафедрального Собора г. Белгород.

pic
Страна: Россия.
Жанр: Остальная музыка.
Год выпуска: 1998
Формат: APE (image + .cue)
Битрейт аудио: lossless
Продолжительность: 00:39:11
Содержание:
1. Поминальный план... 2.22
2. Над Хатынью колокола...4.10
3. Воспрянет Россия...3.40
4. Мой родны кут...3.47
5. Думы мои, думы...7.20
6. Лелеченьки...3.10
7. Камыши...1.36
8. Что в имени тебе моем?..2.50
9. Легенда...2.46
10. Молитва...3.20
11. Благодрение Господу...1.31
12. Ода России...4.00
Обложки+Содержание
picpic
EAC log
Exact Audio Copy V0.99 prebeta 5 from 4. May 2009

Отчёт EAC об извлечении, выполненном 25. декабря 2009, 11:26

Архиерейский хор г. Белгорода / Песнопения Малой Белой и Великой Руси

Дисковод: ASUS DRW-2014L1T Adapter: 0 ID: 1

Режим чтения : Скоростной

Коррекция смещения при чтении : 6
Способность читать области Lead-in и Lead-out : Нет
Заполнение пропущенных сэмплов тишиной : Да
Удаление блоков с тишиной в начале и конце : Нет
При вычислениях CRC использовались нулевые сэмплы : Да
Интерфейс : Встроенный Win32-интерфейс для Win NT/2000

Выходной формат : Внутренние WAV-операции
Формат сэмплов : 44.100 Гц; 16 бит; стерео

TOC извлечённого CD

Трек | Старт | Длительность | Начальный сектор | Конечный сектор
---------------------------------------------------------------------
1 | 0:00.00 | 2:25.05 | 0 | 10879
2 | 2:25.05 | 4:13.61 | 10880 | 29915
3 | 6:38.66 | 3:46.35 | 29916 | 46900
4 | 10:25.26 | 3:50.48 | 46901 | 64198
5 | 14:15.74 | 4:55.13 | 64199 | 86336
6 | 19:11.12 | 3:14.54 | 86337 | 100940
7 | 22:25.66 | 1:39.42 | 100941 | 108407
8 | 24:05.33 | 2:53.45 | 108408 | 121427
9 | 26:59.03 | 2:59.43 | 121428 | 134895
10 | 29:58.46 | 3:26.09 | 134896 | 150354
11 | 33:24.55 | 1:42.68 | 150355 | 158072
12 | 35:07.48 | 4:01.70 | 158073 | 176217

Характеристики диапазона извлечения и сообщения об ошибках

Выбранный диапазон

Имя файла C:\Архиерейский хор г. Белгорода - Песнопения Малой Белой и Великой Руси.wav

Проблемы синхронизации 0:00:42

Пиковый уровень 89.1 %
CRC копии 759FA1C1
Копирование завершено

Ошибок не произошло

Конец отчёта
Download

Войдите на сайт, чтобы увидеть полную информацию.

Как скачивать  ·   Правила трекера

[Профиль]  [ЛС] 

Владиславович

post 07-Авг-2011 12:24 (спустя 1 год 7 месяцев)

[Цитировать] 

Спасибо за песни наших истоков!
 

Klintsov

Стаж: 2 года 1 месяц

Сообщений: 2

post 22-Авг-2015 22:21 (спустя 4 года)

[Цитировать] 

Как скачать????
[Профиль]  [ЛС] 

Klintsov

Стаж: 2 года 1 месяц

Сообщений: 2

post 22-Авг-2015 22:28 (спустя 6 минут)

[Цитировать] 

Дайте раздачу пожалуйста. Очень надо.
[Профиль]  [ЛС] 
Показать сообщения:    
Ответить на тему

Текущее время: 19-Окт 12:46

Часовой пояс: GMT + 4



Вы не можете начинать темы
Вы не можете отвечать на сообщения
Вы не можете редактировать свои сообщения
Вы не можете удалять свои сообщения
Вы не можете голосовать в опросах
Вы не можете прикреплять файлы к сообщениям
Вы не можете скачивать файлы