Loading...
Error

(Колокольные звоны.) "Колокола Петропавловской Крепости". Алексей Уткин. - 2003, APE (image + .cue), lossless

Ответить на тему
Статистика раздачи
no
   
 
Автор Сообщение

СЕРГУЛЕТ

Стаж: 8 лет

Сообщений: 2639

Откуда: LA ROMANA

Dominicanrep

post 23-Окт-2009 15:23

[Цитировать] 

"Колокола Петропавловской Крепости". Алексей Уткин.

pic
Страна: Россия. ООО"Маркон".
Жанр: Колокольные звоны.
Год выпуска: 2003
Формат: APE (image + .cue)
Битрейт аудио: lossless
Продолжительность: 01:13:22
Обложки+Содержание
picpic
EAC log
Exact Audio Copy V0.99 prebeta 5 from 4. May 2009

Отчёт EAC об извлечении, выполненном 23. октября 2009, 15:19

Алексей Уткин / Колокола Петропавловской Крепости

Дисковод: ASUS BC-1205PT Adapter: 1 ID: 0

Режим чтения : Достоверность
Использование точного потока : Да
Отключение кэша аудио : Да
Использование указателей C2 : Нет

Коррекция смещения при чтении : 667
Способность читать области Lead-in и Lead-out : Нет
Заполнение пропущенных сэмплов тишиной : Да
Удаление блоков с тишиной в начале и конце : Нет
При вычислениях CRC использовались нулевые сэмплы : Да
Интерфейс : Встроенный Win32-интерфейс для Win NT/2000

Выходной формат : Внутренние WAV-операции
Формат сэмплов : 44.100 Гц; 16 бит; стерео

TOC извлечённого CD

Трек | Старт | Длительность | Начальный сектор | Конечный сектор
---------------------------------------------------------------------
1 | 0:00.00 | 5:31.08 | 0 | 24832
2 | 5:31.08 | 7:10.18 | 24833 | 57100
3 | 12:41.26 | 6:56.29 | 57101 | 88329
4 | 19:37.55 | 5:34.15 | 88330 | 113394
5 | 25:11.70 | 6:56.67 | 113395 | 144661
6 | 32:08.62 | 6:39.04 | 144662 | 174590
7 | 38:47.66 | 4:33.03 | 174591 | 195068
8 | 43:20.69 | 6:17.26 | 195069 | 223369
9 | 49:38.20 | 6:19.31 | 223370 | 251825
10 | 55:57.51 | 2:10.03 | 251826 | 261578
11 | 58:07.54 | 4:50.66 | 261579 | 283394
12 | 62:58.45 | 10:21.41 | 283395 | 330010

Характеристики диапазона извлечения и сообщения об ошибках

Выбранный диапазон

Имя файла C:\Алексей Уткин - Колокола Петропавловской Крепости.wav

Пиковый уровень 75.8 %
Качество диапазона 100.0 %
CRC копии 2729DD73
Копирование... OK

Ошибок не произошло
Конец отчёта
Download

Войдите для скачивания торрент-файла

Как скачивать  ·   Правила трекера



Последний раз редактировалось: СЕРГУЛЕТ (2010-11-13 03:18), всего редактировалось 1 раз
[Профиль]  [ЛС] 

Lёна

post 05-Дек-2009 20:07 (спустя 1 месяц 13 дней)

[Цитировать] 

СПАСИБО Вам большое!
 

mailbox046

post 15-Июн-2010 21:05 (спустя 6 месяцев)

[Цитировать] 

Пасибки Вам!
 

+Сергей+

Стаж: 6 лет 2 месяца

Сообщений: 225

Откуда: Москва

Russia

post 04-Дек-2010 19:30 (спустя 5 месяцев 18 дней)

[Цитировать] 

Благодарю.
[Профиль]  [ЛС] 

Владимир Лухов

Стаж: 6 лет 5 месяцев

Сообщений: 105

Откуда: Саратов

Russia

post 06-Июн-2011 20:36 (спустя 6 месяцев)

[Цитировать] 

Спасибо...

_________________
С уважением. Владимир.
[Профиль]  [ЛС] 

post 16-Фев-2014 19:39 (спустя 2 года 8 месяцев)

Топик был перенесен из форума Колокольные звоны в форум Архив аудио-раздач

Academic Crack
 

ControlF

Стаж: 1 год 8 месяцев

Сообщений: 1

Russia

post 19-Июн-2015 00:42 (спустя 4 года)

[Цитировать] 

Как скачать?
[Профиль]  [ЛС] 
Показать сообщения:    
Ответить на тему

Текущее время: 23-Фев 04:16

Часовой пояс: GMT + 4



Вы не можете начинать темы
Вы не можете отвечать на сообщения
Вы не можете редактировать свои сообщения
Вы не можете удалять свои сообщения
Вы не можете голосовать в опросах
Вы не можете прикреплять файлы к сообщениям
Вы не можете скачивать файлы