Loading...
Error

(Классическая музыка.) "Итальянская хоровая музыка XVIII века". - 2003, APE (image + .cue), lossless

Ответить на тему
Статистика раздачи
   
 
Автор Сообщение

СЕРГУЛЕТ

Стаж: 8 лет 7 месяцев

Сообщений: 2640

Откуда: LA ROMANA

Dominicanrep

post 05-Ноя-2009 20:30

[Цитировать] 

"Итальянская хоровая музыка XVIII века".

pic
Страна: Россия. Московское Подворье Свято-Троице Сергиевой Лавры.
Жанр: Классическая музыка.
Год выпуска: 2003
Формат: APE (image + .cue)
Битрейт аудио: lossless
Продолжительность: 00:50:22
Обложки+Содержание
picpic
Дополнительная информация: Государственный Академический Русский Хор . Художественный руководитель А. В. Свешников.
EAC log
Exact Audio Copy V0.99 prebeta 5 from 4. May 2009

Отчёт EAC об извлечении, выполненном 5. ноября 2009, 15:18

Академический Русский хор / Итальянская хоровая музыка

Дисковод: ASUS BC-1205PT Adapter: 1 ID: 0

Режим чтения : Достоверность
Использование точного потока : Да
Отключение кэша аудио : Да
Использование указателей C2 : Нет

Коррекция смещения при чтении : 667
Способность читать области Lead-in и Lead-out : Нет
Заполнение пропущенных сэмплов тишиной : Да
Удаление блоков с тишиной в начале и конце : Нет
При вычислениях CRC использовались нулевые сэмплы : Да
Интерфейс : Встроенный Win32-интерфейс для Win NT/2000

Выходной формат : Внутренние WAV-операции
Формат сэмплов : 44.100 Гц; 16 бит; стерео

TOC извлечённого CD

Трек | Старт | Длительность | Начальный сектор | Конечный сектор
---------------------------------------------------------------------
1 | 0:00.00 | 2:16.26 | 0 | 10225
2 | 2:16.26 | 2:03.62 | 10226 | 19512
3 | 4:20.13 | 4:11.71 | 19513 | 38408
4 | 8:32.09 | 1:32.17 | 38409 | 45325
5 | 10:04.26 | 3:03.44 | 45326 | 59094
6 | 13:07.70 | 5:42.15 | 59095 | 84759
7 | 18:50.10 | 4:10.38 | 84760 | 103547
8 | 23:00.48 | 4:07.71 | 103548 | 122143
9 | 27:08.44 | 7:14.68 | 122144 | 154761
10 | 34:23.37 | 4:41.48 | 154762 | 175884
11 | 39:05.10 | 7:47.34 | 175885 | 210943
12 | 46:52.44 | 3:27.31 | 210944 | 226499

Характеристики диапазона извлечения и сообщения об ошибках

Выбранный диапазон

Имя файла C:\Академический Русский хор - Итальянская хоровая музыка.wav

Пиковый уровень 96.6 %
Качество диапазона 100.0 %
CRC копии 47E34885
Копирование... OK

Ошибок не произошло
Download

Войдите на сайт, чтобы увидеть полную информацию.

Как скачивать  ·   Правила трекера

[Профиль]  [ЛС] 

kursk2009462

Стаж: 6 лет 7 месяцев

Сообщений: 33

Russia

post 21-Июл-2011 00:01 (спустя 1 год 8 месяцев)

[Цитировать] 

Спасибо.
[Профиль]  [ЛС] 

post 20-Май-2015 18:16 (спустя 3 года 9 месяцев)

Топик был перенесен из форума Классическая музыка в форум Архив аудио-раздач

Academic Crack
 
Показать сообщения:    
Ответить на тему

Текущее время: 24-Сен 14:27

Часовой пояс: GMT + 4



Вы не можете начинать темы
Вы не можете отвечать на сообщения
Вы не можете редактировать свои сообщения
Вы не можете удалять свои сообщения
Вы не можете голосовать в опросах
Вы не можете прикреплять файлы к сообщениям
Вы не можете скачивать файлы