Loading...
Error

(Колокольные звоны) "Колокольные Звоны Свято-Троицкой Александро-Невской Лавры". Алексей Уткин. - 2009, APE (image + .cue), lossless

Ответить на тему
Статистика раздачи
no
   
 
Автор Сообщение

СЕРГУЛЕТ

Стаж: 8 лет 3 месяца

Сообщений: 2639

Откуда: LA ROMANA

Dominicanrep

post 23-Окт-2009 18:02

[Цитировать] 

"Колокольные Звоны Свято-Троицкой Александро-Невской Лавры". Алексей Уткин.

pic
Страна: Россия. ООО"Маркон".
Жанр: Колокольные звоны
Год выпуска: 2009
Формат: APE (image + .cue)
Битрейт аудио: lossless
Продолжительность: 00:47:51
Обложки+Содержание
picpicpic
EAC log
Exact Audio Copy V0.99 prebeta 5 from 4. May 2009

Отчёт EAC об извлечении, выполненном 23. октября 2009, 17:55

Алексей Уткин / Звоны Александро-Невской Лавры

Дисковод: ASUS BC-1205PT Adapter: 1 ID: 0

Режим чтения : Достоверность
Использование точного потока : Да
Отключение кэша аудио : Да
Использование указателей C2 : Нет

Коррекция смещения при чтении : 667
Способность читать области Lead-in и Lead-out : Нет
Заполнение пропущенных сэмплов тишиной : Да
Удаление блоков с тишиной в начале и конце : Нет
При вычислениях CRC использовались нулевые сэмплы : Да
Интерфейс : Встроенный Win32-интерфейс для Win NT/2000

Выходной формат : Внутренние WAV-операции
Формат сэмплов : 44.100 Гц; 16 бит; стерео

TOC извлечённого CD

Трек | Старт | Длительность | Начальный сектор | Конечный сектор
---------------------------------------------------------------------
1 | 0:00.00 | 5:42.38 | 0 | 25687
2 | 5:42.38 | 8:58.04 | 25688 | 66041
3 | 14:40.42 | 8:04.60 | 66042 | 102401
4 | 22:45.27 | 4:09.19 | 102402 | 121095
5 | 26:54.46 | 7:13.62 | 121096 | 153632
6 | 34:08.33 | 7:06.50 | 153633 | 185632
7 | 41:15.08 | 6:34.09 | 185633 | 215191

Характеристики диапазона извлечения и сообщения об ошибках

Выбранный диапазон

Имя файла C:\Алексей Уткин - Звоны Александро-Невской Лавры.wav

Пиковый уровень 81.7 %
Качество диапазона 100.0 %
CRC копии CF3F1BF1
Копирование... OK

Ошибок не произошло
Конец отчёта
Download

Войдите для скачивания торрент-файла

Как скачивать  ·   Правила трекера



Последний раз редактировалось: СЕРГУЛЕТ (2010-11-20 12:51), всего редактировалось 1 раз
[Профиль]  [ЛС] 

Владимир Лухов

Стаж: 6 лет 8 месяцев

Сообщений: 108

Откуда: Саратов

Russia

post 05-Окт-2010 01:11 (спустя 11 месяцев)

[Цитировать] 

Спасибо
[Профиль]  [ЛС] 

+Сергей+

Стаж: 6 лет 5 месяцев

Сообщений: 225

Откуда: Москва

Russia

post 04-Дек-2010 19:24 (спустя 1 месяц 30 дней)

[Цитировать] 

Благодарствую.
[Профиль]  [ЛС] 

post 20-Май-2015 18:15 (спустя 4 года 5 месяцев)

Топик был перенесен из форума Колокольные звоны в форум Архив аудио-раздач

Academic Crack
 
Показать сообщения:    
Ответить на тему

Текущее время: 23-Май 12:49

Часовой пояс: GMT + 4



Вы не можете начинать темы
Вы не можете отвечать на сообщения
Вы не можете редактировать свои сообщения
Вы не можете удалять свои сообщения
Вы не можете голосовать в опросах
Вы не можете прикреплять файлы к сообщениям
Вы не можете скачивать файлы