Loading...
Error

Библейские сказания. Апокалипсис. Откровение Иоанна Богослова / San Giovanni - L'apocalisse (Раффаэль Мертес / Raffaele Mertes) [2002 г., Драма, исторический, DVDRip]

Ответить на тему
Статистика раздачи
Скачали: [ 4 ]
   
 
Автор Сообщение

corvin

Стаж: 5 лет 6 месяцев

Сообщений: 25

Откуда: Москва

Russia

post 12-Ноя-2011 02:19

[Цитировать] 

Библейские сказания. Апокалипсис. Откровение Иоанна Богослова / San Giovanni - L'apocalisse

pic
Год выпуска: 2002
Страна: Италия - Франция - Германия - Великобритания
Жанр: Драма, исторический
Продолжительность: 01:32:47
Перевод: Профессиональный (многоголосый, закадровый)

Режиссер: Раффаэль Мертес (Raffaele Mertes)

В фильме снимались: Ричард Харрис (Richard Harris), Виттория Бельведер (Vittoria Belvedere), Бенжамин Сэдлер (Benjamin Sadler), Кристиан Колунд (Christian Kohlund), Эрол Сэндер (Erol Sander), Йен Дункан (Ian Duncan), Брюс Пэйн (Bruce Payne), Алессандро Бертолуччи (Alessandro Bertolucci), Уолтер Нудо (Walter Nudo), Константин Грегори (Constantine Gregory), Люка Уорд (Luca Ward), Мэтт Патрези (Matt Patresi), Алекс МакСуини (Alex McSweeney), Стефания Риви (Stefania Rivi)

Описание: 90-й год новой эры. Римский император Домициан объявляет себя богом, а христиан, не признающих его божественности, — злейшими врагами государства. Престарелый апостол Иоанн, под чужим именем находящийся в заточении на острове Патмос, получает Божественное Откровение о последних днях мира. Движимая желанием увидеть последнего очевидца Страстей Христовых молодая христианка Ирина тайно проникает на остров. Иоанн доверяет ей распространить среди единоверцев записанное им Откровение. Но Ирина не подозревает, что ее возлюбленный Валерий, сын римского полководца Квинта, получил задание выследить Иоанна…

Сэмпл

Качество: DVDRip
Формат: AVI
Видео кодек: DivX
Аудио кодек: AC3
Видео: DivX, 1905 Кбит/сек, 704х416 (1,692 ), 25,000 кадр/сек
Аудио: AC3, 192 Кбит/сек, 48,0 КГц, 16 бит, 2 канала

Скриншоты:
pic pic pic pic pic

IMDb
MediaInfo
Полное имя :...\Библейские сказания Апокалипсис San Giovanni - L'apocalisse 2002\Biblejskie.skazanija.Apokalipsis.2002.DivX.DVDRip.avi
Формат : AVI
Формат/Информация : Audio Video Interleave
Размер файла : 1,37 Гбайт
Продолжительность : 1 ч. 32 м.
Общий поток : 2106 Кбит/сек
Программа кодирования : VirtualDubMod 1.5.10.2 (build 2542/release)
Библиотека кодирования : VirtualDubMod build 2542/release

Видео
Идентификатор : 0
Формат : MPEG-4 Visual
Параметр BVOP формата : 1
Параметр QPel формата : Нет
Параметр GMC формата : Без точки перехода
Параметр матрицы формата : Default (MPEG)
Режим смешивания : Сжатый битовый поток
Идентификатор кодека : DX50
Идентификатор кодека/Подсказка : DivX 5
Продолжительность : 1 ч. 32 м.
Битрейт : 1905 Кбит/сек
Ширина : 704 пикселя
Высота : 416 пикселей
Соотношение сторон : 1,692
Частота кадров : 25,000 кадров/сек
Цветовое пространство : YUV
Субдискретизация насыщенности : 4:2:0
Битовая глубина : 8 бит
Тип развёртки : Прогрессивная
Метод сжатия : С потерями
Бит/(Пиксели*Кадры) : 0.260
Размер потока : 1,23 Гбайт (90%)
Библиотека кодирования : DivX 5.2.1 Beta (UTC 2004-09-08)

Аудио
Идентификатор : 1
Формат : AC-3
Формат/Информация : Audio Coding 3
Расширение режима : CM (complete main)
Идентификатор кодека : 2000
Продолжительность : 1 ч. 32 м.
Вид битрейта : Постоянный
Битрейт : 192 Кбит/сек
Каналы : 2 канала
Расположение каналов : Front: L R
Частота : 48,0 КГц
Битовая глубина : 16 бит
Метод сжатия : С потерями
Размер потока : 127 Мбайт (9%)
Выравнивание : Разделение по промежуткам
Продолжительность промежутка : 40 мс. (1,00 видеокадр)
Время предзагрузки промежутка : 500 мс.
Download

Войдите для скачивания торрент-файла

Как скачивать  ·   Правила трекера



Последний раз редактировалось: corvin (2011-12-17 16:27), всего редактировалось 6 раз(а)
[Профиль]  [ЛС] 

Алексей Кустов

Стаж: 7 лет 1 месяц

Сообщений: 38

Ukraine

post 12-Ноя-2011 14:37 (спустя 12 часов)

[Цитировать] 

Довелось мне как-то посмотреть сей "шедевр"... Частично детектив (ищут везде и не могут найти апостола Иоанна ), частично любовная история римляна и Ирины. От самого откровения там скудный кусочек с малобюджетной графикой. Думаю, полезность этого фильма, возможно, существует. Но очень теоретически. Привести кого-то к Богу? Вряд ли. Что-то донести до христианина? Ничего нового он там не почерпнёт. Это - моё личное мнение.
[Профиль]  [ЛС] 

last

Стаж: 5 лет 8 месяцев

Сообщений: 154

post 12-Ноя-2011 18:09 (спустя 3 часа)

[Цитировать] 

Латиняне изначально извращенно проповедуют Христа распятого, то что категорически запрещали делать Святые Отцы Православной Церкви, дабы не впасть в прелесть и не погибнуть, латиняне не только делают, но и всячески это делание проповедуют.
От сюда все ереси и расколы - из их прельщения духом злобы поднебесной, ну и как вывод такие вот горе фильмы.
[Профиль]  [ЛС] 

Ируня1986

Стаж: 5 лет 3 месяца

Сообщений: 24

Ukraine

post 02-Мар-2012 14:14 (спустя 3 месяца 19 дней)

[Цитировать] 

Конечно интересно, захватывающе, если не обращать внимание на некоторые факты,- неужели Иоанн не знал полностью молитву "Отче наш"? Вообщем много нюансов с вопросами, если не знаком со Святым писанием, есть риск реального искушения. Может, это и было целью создателей данного фильма, Спаси Господи!
[Профиль]  [ЛС] 

Оксана-09

Стаж: 5 лет 6 месяцев

Сообщений: 30

post 16-Апр-2015 14:53 (спустя 3 года 1 месяц)

[Цитировать] 

прочитала ваши коменты и засомневалась: скачивать фильм чтобы посмотреть или не надо?
[Профиль]  [ЛС] 
Показать сообщения:    
Ответить на тему

Текущее время: 29-Май 13:36

Часовой пояс: GMT + 4



Вы не можете начинать темы
Вы не можете отвечать на сообщения
Вы не можете редактировать свои сообщения
Вы не можете удалять свои сообщения
Вы не можете голосовать в опросах
Вы не можете прикреплять файлы к сообщениям
Вы не можете скачивать файлы