Loading...
Error

Подборка пасхальных песен для утренников (часть 2) (духовная музыка) - 2015, MP3

Ответить на тему
Статистика раздачи
Скачали: [ 7 ]
   
 
Автор Сообщение

Татьяна хв

Стаж: 5 лет 6 месяцев

Сообщений: 56

post 25-Мар-2015 11:33

[Цитировать] 

Подборка пасхальных песен для утренников (часть 2)


pic
Страна: Россия, Украина

Жанр: духовная музыка

Год выпуска: 2015

Формат: MP3


Дополнительная информация:
Данная подборка пасхальных песен может подойти для подготовки утренников в воскресных школах, детских садах.
Часть первая "Подборка пасхальных песен для утренников" здесь:
http://pravtor.ru/viewtopic.php?t=14357
Тексты песен с нотами к большинству из приведенных песен можно найти здесь:
http://pravtor.ru/viewtopic.php?t=14348
http://pravtor.ru/viewtopic.php?t=14375
Треклист
1. Алиллуия
2. Верба минус
3. Верба плюс
4. Во святое воскресение
5. Вот проснется вся земля
6. Детский хор Пасха
7. Дили-дон
8. Зажигает верба свечи 2
9. Звонят звонят колокола минус
10. Купола золотые украсили Юлия Юрик
11. Мироносицы
12. Ночь на Пасху (И. Болдышева)
13. Пасха светлая
14. Пасха Христова Е. Королева
15. Пасха_в_гости_к_нам_пришла_(-)
16. Пасхальная праздничная
17. Пасхальное яичко -
18. Пасхальное яичко +
19. Пасхальный звон
20. Под напев молитв пасхальных
21. Праздник Воскресенья
22. Радость моя Христос воскресе (И. Болдышева)
23. Светлое Христово Воскресение приют Отрада
24. Свеча минус
25. Свеча плюс
26. Святая ночь
27. Снова вербы в наших руках минус
28. Снова вербы в наших руках плюс
29. Солнечный лучик
30. Спит Сион
31. Христос воскрес звучит с небес
32. Христос воскрес о. Е. Тремаскин
33. Христос Воскрес приют Отрада
34. Христос воскресе Е. Смольянинова
Информация о файлах
Complete name : Алиллуия.mp3
Format : MPEG Audio
File size : 4.69 MiB
Duration : 2mn 33s
Overall bit rate : 256 Kbps
Album : Берегите любовь
Track name : Аллилуйя
Track name/Position : 11
Performer : Детский хор приюта Покровского монастыря
Genre : Музыка
ContentType : Chorus
Recorded date : 2004
Writing library : Exact Audio Copy (Burst mode) / LAME3.92
Comment : 01.01.07
Audio
Format : MPEG Audio
Format version : Version 1
Format profile : Layer 3
Duration : 2mn 33s
Bit rate mode : Constant
Bit rate : 256 Kbps
Channel(s) : 2 channels
Sampling rate : 44.1 KHz
Resolution : 16 bits
Stream size : 4.69 MiB (100%)
Writing library : LAME3.92
Encoding settings : -m s -V 4 -q 2 -lowpass 20.1

Complete name : Верба минус.mp3
Format : MPEG Audio
File size : 1.61 MiB
Duration : 1mn 45s
Overall bit rate : 128 Kbps
Album : Неизвестный диск (17.10.2010 23:30:06)
Track name : Дорожка 3
Track name/Position : 3
Performer : Неизвестный исполнитель
Genre : Неизвестный жанр
MCDI : Yes
Audio
Format : MPEG Audio
Format version : Version 1
Format profile : Layer 3
Duration : 1mn 45s
Bit rate mode : Constant
Bit rate : 128 Kbps
Channel(s) : 2 channels
Sampling rate : 44.1 KHz
Resolution : 16 bits
Stream size : 1.60 MiB (100%)

Complete name : Верба плюс.mp3
Format : MPEG Audio
File size : 1.82 MiB
Duration : 1mn 59s
Overall bit rate : 128 Kbps
Album : Неизвестный диск (17.10.2010 23:30:06)
Track name : Дорожка 4
Track name/Position : 4
Performer : Неизвестный исполнитель
Genre : Неизвестный жанр
MCDI : Yes
Audio
Format : MPEG Audio
Format version : Version 1
Format profile : Layer 3
Duration : 1mn 59s
Bit rate mode : Constant
Bit rate : 128 Kbps
Channel(s) : 2 channels
Sampling rate : 44.1 KHz
Resolution : 16 bits
Stream size : 1.82 MiB (100%)

Complete name : Во святое воскресение.mp3
Format : MPEG Audio
File size : 1.11 MiB
Duration : 36s 113ms
Overall bit rate : 256 Kbps
Album : Неизвестный альбом (24.10.2011 8:03:16)
Track name : Дорожка 1
Track name/Position : 1
Performer : Неизвестный исполнитель
Genre : Неизвестный жанр
MCDI : Yes
Audio
Format : MPEG Audio
Format version : Version 1
Format profile : Layer 3
Duration : 36s 112ms
Bit rate mode : Constant
Bit rate : 256 Kbps
Channel(s) : 2 channels
Sampling rate : 44.1 KHz
Resolution : 16 bits
Stream size : 1.10 MiB (100%)

Complete name : Вот проснется вся земля.mp3
Format : MPEG Audio
File size : 2.34 MiB
Duration : 2mn 33s
Overall bit rate : 128 Kbps
Track name : Unknown Artist - Track 11
Performer : 11
Writing library : LAME3.97b
Audio
Format : MPEG Audio
Format version : Version 1
Format profile : Layer 3
Duration : 2mn 33s
Bit rate mode : Variable
Bit rate : 128 Kbps
Channel(s) : 2 channels
Sampling rate : 44.1 KHz
Resolution : 16 bits
Stream size : 2.34 MiB (100%)
Writing library : LAME3.97b
Encoding settings : -m s -V 2 -q 0 -lowpass 17 --abr 128

Complete name : Детский хор Пасха.mp3
Format : MPEG Audio
File size : 2.59 MiB
Duration : 2mn 49s
Overall bit rate : 128 Kbps
Writing library : LAME3.92
Audio
Format : MPEG Audio
Format version : Version 1
Format profile : Layer 3
Duration : 2mn 49s
Bit rate mode : Constant
Bit rate : 128 Kbps
Channel(s) : 2 channels
Sampling rate : 44.1 KHz
Resolution : 16 bits
Stream size : 2.59 MiB (100%)
Writing library : LAME3.92

Complete name : Дили-дон.mp3
Format : MPEG Audio
File size : 3.77 MiB
Duration : 2mn 44s
Overall bit rate : 192 Kbps
Album : Неизвестный диск (30.06.2007 14:27:14)
Track name : Дорожка 15
Track name/Position : 15
Performer : Неизвестный исполнитель
Genre : Неизвестный
MCDI : Yes
Audio
Format : MPEG Audio
Format version : Version 1
Format profile : Layer 3
Duration : 2mn 44s
Bit rate mode : Constant
Bit rate : 192 Kbps
Channel(s) : 2 channels
Sampling rate : 44.1 KHz
Resolution : 16 bits
Stream size : 3.77 MiB (100%)

Complete name : Зажигает верба свечи 2.mp3
Format : MPEG Audio
File size : 816 KiB
Duration : 4mn 36s
Overall bit rate : 24.0 Kbps
Performer : 011
Genre : Other
Audio
Format : MPEG Audio
Format version : Version 2
Format profile : Layer 3
Duration : 4mn 36s
Bit rate mode : Constant
Bit rate : 24.0 Kbps
Channel(s) : 1 channel
Sampling rate : 22.05 KHz
Resolution : 16 bits
Stream size : 810 KiB (99%)

Complete name : Звонят звонят колокола минус.mp3
Format : MPEG Audio
File size : 1.43 MiB
Duration : 1mn 33s
Overall bit rate : 128 Kbps
Album : Неизвестный диск (17.10.2010 23:30:06)
Track name : Дорожка 7
Track name/Position : 7
Performer : Неизвестный исполнитель
Genre : Неизвестный жанр
MCDI : Yes
Audio
Format : MPEG Audio
Format version : Version 1
Format profile : Layer 3
Duration : 1mn 33s
Bit rate mode : Constant
Bit rate : 128 Kbps
Channel(s) : 2 channels
Sampling rate : 44.1 KHz
Resolution : 16 bits
Stream size : 1.42 MiB (100%)

Complete name : Купола золотые украсили Юлия Юрик.mp3
Format : MPEG Audio
File size : 4.20 MiB
Duration : 2mn 17s
Overall bit rate : 256 Kbps
Album : Не жду награды от людей
Performer : Юрик Юлия
Accompaniment : Юрик Юлия
Genre : духовные песнопения
Writing library : LAME3.92
Cover : Yes
Cover type : Cover (front)
Cover MIME : image/jpeg
Comment : Юрик Юлия - Не жду награды от людей
Audio
Format : MPEG Audio
Format version : Version 1
Format profile : Layer 3
Duration : 2mn 17s
Bit rate mode : Constant
Bit rate : 256 Kbps
Channel(s) : 2 channels
Sampling rate : 44.1 KHz
Resolution : 16 bits
Stream size : 4.18 MiB (100%)
Writing library : LAME3.92

Complete name: Мироносицы.mp3
Format : MPEG Audio
File size : 3.52 MiB
Album : Спасительная дверца
Track name : Мироносицы
Track name/Position : 02
Track name/Total : 13
Performer : Юлия Берёзова
Genre : Музыка
Recorded date : 2002
Writing library : LAME3.92ЄЄЄЄЄЄЄЄЄЄЄЄ
Comment : 01.01.07
Audio
Format : MPEG Audio
Format version : Version 1
Format profile : Layer 3
Bit rate mode : Variable
Channel(s) : 2 channels
Sampling rate : 44.1 KHz
Resolution : 16 bits
Stream size : 3.52 MiB (100%)
Writing library : LAME3.92ЄЄЄЄЄЄЄЄЄЄЄЄ

Complete name : Ночь на Пасху (И. Болдышева).mp3
Format : MPEG Audio
File size : 6.22 MiB
Duration : 4mn 31s
Overall bit rate : 192 Kbps
Performer : Ирина Болдышева
Genre : Other
Writing library : LAME3.98.2
Encoding settings : Lavf52.54.0
Audio
Format : MPEG Audio
Format version : Version 1
Format profile : Layer 3
Duration : 4mn 31s
Bit rate mode : Constant
Bit rate : 192 Kbps
Channel(s) : 2 channels
Sampling rate : 44.1 KHz
Resolution : 16 bits
Stream size : 6.22 MiB (100%)
Writing library : LAME3.98.2

Complete name : Пасха_в_гости_к_нам_пришла_(-).mp3
Format : MPEG Audio
File size : 1.99 MiB
Duration : 2mn 10s
Overall bit rate : 128 Kbps
Genre : Other
Audio
Format : MPEG Audio
Format version : Version 1
Format profile : Layer 3
Duration : 2mn 10s
Bit rate mode : Constant
Bit rate : 128 Kbps
Channel(s) : 2 channels
Sampling rate : 44.1 KHz
Resolution : 16 bits
Stream size : 1.99 MiB (100%)

Complete name : Пасхальная праздничная .mp3
Format : MPEG Audio
File size : 4.40 MiB
Duration : 4mn 48s
Overall bit rate : 128 Kbps
Track name/Position : 1
Performer : Неизвестный исполнитель
Writing library : LAME3.98
Audio
Format : MPEG Audio
Format version : Version 1
Format profile : Layer 3
Duration : 4mn 48s
Bit rate mode : Constant
Bit rate : 128 Kbps
Channel(s) : 2 channels
Sampling rate : 44.1 KHz
Resolution : 16 bits
Stream size : 4.40 MiB (100%)
Writing library : LAME3.98
Encoding settings : -m s -V 4 -q 3 -lowpass 17 -b 128

Complete name: Пасхальное яичко -.mp3
Format : MPEG Audio
File size : 4.36 MiB
Duration : 1mn 54s
Overall bit rate : 320 Kbps
Audio
Format : MPEG Audio
Format version : Version 1
Format profile : Layer 3
Duration : 1mn 54s
Bit rate mode : Constant
Bit rate : 320 Kbps
Channel(s) : 2 channels
Sampling rate : 44.1 KHz
Resolution : 16 bits
Stream size : 4.36 MiB (100%)

Complete name : Пасхальное яичко +.mp3
Format : MPEG Audio
File size : 4.36 MiB
Duration : 1mn 54s
Overall bit rate : 320 Kbps
Audio
Format : MPEG Audio
Format version : Version 1
Format profile : Layer 3
Duration : 1mn 54s
Bit rate mode : Constant
Bit rate : 320 Kbps
Channel(s) : 2 channels
Sampling rate : 44.1 KHz
Resolution : 16 bits
Stream size : 4.36 MiB (100%)

Complete name : Пасхальный звон.mp3
Format : MPEG Audio
File size : 2.70 MiB
Duration : 2mn 57s
Overall bit rate : 128 Kbps
Writing library : FairStars Audio Converter
Audio
Format : MPEG Audio
Format version : Version 1
Format profile : Layer 3
Duration : 2mn 57s
Bit rate mode : Constant
Bit rate : 128 Kbps
Channel(s) : 2 channels
Sampling rate : 44.1 KHz
Resolution : 16 bits
Stream size : 2.70 MiB (100%)

Complete name : Пасха светлая.mp3
Format : MPEG Audio
File size : 3.51 MiB
Duration : 1mn 31s
Overall bit rate : 320 Kbps
Album : Как хороша земля!
Track name : Пасха светлая
Performer : Елена Королёва
Writing library : LAME3.93
Comment : Гитара: А. Королев, А. Сысоев. / Вокал: Е. Королёва. / Звукорежиссёры: И. Петров, В. Баранов.
Audio
Format : MPEG Audio
Format version : Version 1
Format profile : Layer 3
Duration : 1mn 31s
Bit rate mode : Constant
Bit rate : 320 Kbps
Channel(s) : 2 channels
Sampling rate : 44.1 KHz
Resolution : 16 bits
Stream size : 3.51 MiB (100%)
Writing library : LAME3.93
Encoding settings : -m s -V 4 -q 2 -lowpass 21.4

Complete name : Под напев молитв пасхальных.mp3
Format : MPEG Audio
File size : 2.44 MiB
Duration : 2mn 39s
Overall bit rate : 128 Kbps
Album : dobrie_pesni
Track name : Запис 16
Track name/Position : 16
Performer : Невідомий виконавець
Genre : Немає даних
MCDI : Yes
Audio
Format : MPEG Audio
Format version : Version 1
Format profile : Layer 3
Duration : 2mn 39s
Bit rate mode : Constant
Bit rate : 128 Kbps
Channel(s) : 2 channels
Sampling rate : 44.1 KHz
Resolution : 16 bits
Stream size : 2.44 MiB (100%)

Complete name : Праздник Воскресенья.mp3
Format : MPEG Audio
File size : 3.08 MiB
Duration : 1mn 40s
Overall bit rate : 256 Kbps
Genre : Blues
Recorded date : 2013-2013-19 :
Engineer : Microsoft gdhh
Audio
Format : MPEG Audio
Format version : Version 1
Format profile : Layer 3
Duration : 1mn 40s
Bit rate mode : Constant
Bit rate : 256 Kbps
Channel(s) : 2 channels
Sampling rate : 44.1 KHz
Resolution : 16 bits
Stream size : 3.08 MiB (100%)

Complete name : Радость моя Христос воскресе (И. Болдышева).mp3
Format : MPEG Audio
File size : 6.12 MiB
Duration : 4mn 27s
Overall bit rate : 192 Kbps
Genre : Blues
Audio
Format : MPEG Audio
Format version : Version 1
Format profile : Layer 3
Duration : 4mn 27s
Bit rate mode : Constant
Bit rate : 192 Kbps
Channel(s) : 2 channels
Sampling rate : 44.1 KHz
Resolution : 16 bits
Stream size : 6.12 MiB (100%)

Complete name : Светлое Христово Воскресение приют Отрада.mp3
Format : MPEG Audio
File size : 2.12 MiB
Duration : 3mn 42s
Overall bit rate : 80.0 Kbps
Album : отрада
Track name : 21
Track name/Position : 21
Performer : хор
Recorded date : 2011
Audio
Format : MPEG Audio
Format version : Version 2
Format profile : Layer 3
Duration : 3mn 42s
Bit rate mode : Constant
Bit rate : 80.0 Kbps
Channel(s) : 2 channels
Sampling rate : 22.05 KHz
Resolution : 16 bits
Stream size : 2.12 MiB (100%)

Complete name : Свеча минус.mp3
Format : MPEG Audio
File size : 6.43 MiB
Duration : 2mn 42s
Overall bit rate : 320 Kbps
Album : Снежный серпантин
Track name : Свеча ...В январский вечер у окна оставлю я свечу... (минус) Суэтов
Composer : Сергей Суэтов
Genre : Детские
Recorded date : ?-2012
Cover : Yes
Cover type : Cover (front)
Cover MIME : image/jpg
Comment : Фонотека сайта music-fantasy.ru
Audio
Format : MPEG Audio
Format version : Version 1
Format profile : Layer 3
Duration : 2mn 42s
Bit rate mode : Constant
Bit rate : 320 Kbps
Channel(s) : 2 channels
Sampling rate : 44.1 KHz
Resolution : 16 bits
Stream size : 6.21 MiB (97%)

Complete name : Свеча плюс.mp3
Format : MPEG Audio
File size : 6.43 MiB
Duration : 2mn 42s
Overall bit rate : 320 Kbps
Album : Снежный серпантин
Track name : Свеча ...В январский вечер у окна оставлю я свечу... (плюс) Суэтов
Composer : Сергей Суэтов
Genre : Детские
Recorded date : ?-2012
Cover : Yes
Cover type : Cover (front)
Cover MIME : image/jpg
Comment : Фонотека сайта music-fantasy.ru
Audio
Format : MPEG Audio
Format version : Version 1
Format profile : Layer 3
Duration : 2mn 42s
Bit rate mode : Constant
Bit rate : 320 Kbps
Channel(s) : 2 channels
Sampling rate : 44.1 KHz
Resolution : 16 bits
Stream size : 6.21 MiB (97%)

Complete name : Святая ночь.mp3
Format : MPEG Audio
File size : 3.57 MiB
Duration : 2mn 34s
Overall bit rate : 192 Kbps
Album : Лирический
Track name : Воистинну Воскрес
Performer : Алексей Русский
Original/Performer : Алексей Русский
Accompaniment : Алексей Русский
Composer : Алексей Русский
Lyricist : А.Чернов
Original/Lyricist : А.Чернов
Genre : Chanson
Recorded date : 2010
Writing library : LAME3.97
Copyright : Алексей Русский
Cover : Yes
Cover MIME : image/jpeg
Software : Audiograbber 1.83.01, LAME dll 3.96, 224 Kbit/s, Stereo, High quality
Audio
Format : MPEG Audio
Format version : Version 1
Format profile : Layer 3
Duration : 2mn 34s
Bit rate mode : Constant
Bit rate : 192 Kbps
Channel(s) : 2 channels
Sampling rate : 44.1 KHz
Resolution : 16 bits
Stream size : 3.54 MiB (99%)
Writing library : LAME3.97
Encoding settings : -m s -V 4 -q 3 -lowpass 18.6 -b 192

Complete name : Снова вербы в наших руках минус.mp3
Format : MPEG Audio
File size : 1.94 MiB
Duration : 2mn 6s
Overall bit rate : 128 Kbps
Album : Неизвестный диск (17.10.2010 23:30:06)
Track name : Дорожка 6
Track name/Position : 6
Performer : Неизвестный исполнитель
Genre : Неизвестный жанр
MCDI : Yes
Audio
Format : MPEG Audio
Format version : Version 1
Format profile : Layer 3
Duration : 2mn 6s
Bit rate mode : Constant
Bit rate : 128 Kbps
Channel(s) : 2 channels
Sampling rate : 44.1 KHz
Resolution : 16 bits
Stream size : 1.93 MiB (100%)

Complete name : Снова вербы в наших руках плюс.mp3
Format : MPEG Audio
File size : 2.03 MiB
Duration : 2mn 12s
Overall bit rate : 128 Kbps
Album : Неизвестный диск (17.10.2010 23:30:06)
Track name : Дорожка 5
Track name/Position : 5
Performer : Неизвестный исполнитель
Genre : Неизвестный жанр
MCDI : Yes
Audio
Format : MPEG Audio
Format version : Version 1
Format profile : Layer 3
Duration : 2mn 12s
Bit rate mode : Constant
Bit rate : 128 Kbps
Channel(s) : 2 channels
Sampling rate : 44.1 KHz
Resolution : 16 bits
Stream size : 2.03 MiB (100%)

Complete name : Солнечный лучик.mp3
Format : MPEG Audio
File size : 4.46 MiB
Duration : 1mn 56s
Overall bit rate : 320 Kbps
Album : http://vkmonline.com
Track name : Солнечный лучик - Татьяна Агафонова
Writing library : LAME3.88 (beta)
Comment : http://vkmonline.com
Audio
Format : MPEG Audio
Format version : Version 1
Format profile : Layer 3
Duration : 1mn 56s
Bit rate mode : Constant
Bit rate : 320 Kbps
Channel(s) : 2 channels
Sampling rate : 44.1 KHz
Resolution : 16 bits
Stream size : 4.44 MiB (99%)
Writing library : LAME3.88 (beta)

Complete name : Спит Сион.mp3
Format : MPEG Audio
File size : 1.77 MiB
Duration : 3mn 51s
Overall bit rate : 64.0 Kbps
Album : Раю, Мой Раю
Track name : Спит Сион
Track name/Position : 06
Performer : Андрей Байкалец
Recorded date : 1999
Audio
Format : MPEG Audio
Format version : Version 2
Format profile : Layer 3
Duration : 3mn 51s
Bit rate mode : Constant
Bit rate : 64.0 Kbps
Channel(s) : 2 channels
Sampling rate : 22.05 KHz
Resolution : 16 bits
Stream size : 1.76 MiB (100%)

Complete name : Христос воскрес звучит с небес.mp3
Format : MPEG Audio
File size : 3.36 MiB
Duration : 1mn 50s
Overall bit rate : 256 Kbps
Track name/Position : 9
Genre : Blues
Audio
Format : MPEG Audio
Format version : Version 1
Format profile : Layer 3
Duration : 1mn 50s
Bit rate mode : Constant
Bit rate : 256 Kbps
Channel(s) : 2 channels
Sampling rate : 44.1 KHz
Resolution : 16 bits
Stream size : 3.36 MiB (100%)

Complete name : Христос воскрес о. Е. Тремаскин.mp3
Format : MPEG Audio
File size : 3.75 MiB
Duration : 1mn 38s
Overall bit rate : 320 Kbps
Track name : Христос воскрес
Track name/Position : 18
Performer : иерей Тремаскин Евгений
Accompaniment : иерей Тремаскин Евгений
Writing library : LAME3.90 (alpha)ЄЄЄЄ
Comment : Коллекция www.predanie.ru
Audio
Format : MPEG Audio
Format version : Version 1
Format profile : Layer 3
Duration : 1mn 38s
Bit rate mode : Constant
Bit rate : 320 Kbps
Channel(s) : 2 channels
Sampling rate : 44.1 KHz
Resolution : 16 bits
Stream size : 3.75 MiB (100%)
Writing library : LAME3.90 (alpha)ЄЄЄЄ

Complete name : Христос Воскрес приют Отрада.mp3
Format : MPEG Audio
File size : 1.42 MiB
Duration : 2mn 29s
Overall bit rate : 80.0 Kbps
Album : отрада
Track name : 24
Track name/Position : 24
Performer : хор
Recorded date : 2011
Audio
Format : MPEG Audio
Format version : Version 2
Format profile : Layer 3
Duration : 2mn 29s
Bit rate mode : Constant
Bit rate : 80.0 Kbps
Channel(s) : 2 channels
Sampling rate : 22.05 KHz
Resolution : 16 bits
Stream size : 1.42 MiB (100%)

Complete name : Христос воскресе Е. Смольянинова.mp3
Format : MPEG Audio
File size : 4.02 MiB
Duration : 2mn 11s
Overall bit rate : 256 Kbps
Album : Молитва
Track name : Христос Воскресе!
Track name/Position : 16
Track name/Total : 16
Performer : Евгения Смолянинова
Genre : Музыка
Recorded date : 1999
Encoding settings : Audiograbber 1.81.03, Fraunhofer acm, 256 kBit/s, 44,100 Hz, Stereo, HQ = on
Comment : 01.01.07
CDDB Disc ID : 01.01.07
Audio
Format : MPEG Audio
Format version : Version 1
Format profile : Layer 3
Duration : 2mn 11s
Bit rate mode : Constant
Bit rate : 256 Kbps
Channel(s) : 2 channels
Sampling rate : 44.1 KHz
Resolution : 16 bits
Stream size : 4.02 MiB (100%)
Download

Войдите для скачивания торрент-файла

Как скачивать  ·   Правила трекера



Последний раз редактировалось: Татьяна хв (2016-10-10 14:35), всего редактировалось 7 раз(а)
[Профиль]  [ЛС] 

stepan-frunze

Стаж: 7 лет 9 месяцев

Сообщений: 2565

Russia

post 26-Мар-2015 02:40 (спустя 15 часов)

[Цитировать] 

Спасибо.
[Профиль]  [ЛС] 

andrejpushkaryov

Модератор

Стаж: 7 лет 7 месяцев

Сообщений: 998

Откуда: Ижевск

Russia

post 31-Мар-2015 08:16 (спустя 5 дней)

[Цитировать] 

Приложите постер подходящий на ваш взгляд к данной раздаче .
• Постер должен быть не менее 200 и не более 600 пикселей по большей стороне..
[Профиль]  [ЛС] 

uk9cbd

Стаж: 2 года 8 месяцев

Сообщений: 73

Russia

post 26-Ноя-2015 14:53 (спустя 7 месяцев)

[Цитировать] 

Благодарю!

_________________
Мир всем...
[Профиль]  [ЛС] 

zvezdohka

Стаж: 19 дней

Сообщений: 13

Russia

post 25-Ноя-2016 11:36 (спустя 11 месяцев)

[Цитировать] 

Спаси вас Господь.

_________________
можно все.но не сразу.или сразу.но не все.
[Профиль]  [ЛС] 
Показать сообщения:    
Ответить на тему

Текущее время: 08-Дек 00:15

Часовой пояс: GMT + 4



Вы не можете начинать темы
Вы не можете отвечать на сообщения
Вы не можете редактировать свои сообщения
Вы не можете удалять свои сообщения
Вы не можете голосовать в опросах
Вы не можете прикреплять файлы к сообщениям
Вы не можете скачивать файлы