Loading...
Error

(Авторская, Духовные песнопения) Священик Валерий Логачев - Начни с себя! - 2012, FLAC (tracks), lossless

Ответить на тему
Статистика раздачи
Скачали: [ 14 ]
   
 
Автор Сообщение

ser8

Стаж: 5 лет 6 месяцев

Сообщений: 6

Russia

post 28-Ноя-2014 14:03

[Цитировать] 

Священик Валерий Логачев / Начни с себя!

pic
Жанр: Авторская, Духовные песнопения
Страна-производитель диска: Россия
Год издания диска: 2012
Тип издания: Official CDr , Album
Издатель (лейбл): Студия "СЛОБОДА"
Аудиокодек: FLAC (*.flac)
Тип рипа: tracks+.cue
Битрейт аудио: lossless
Продолжительность: 00:40:33
Источник (релизер): new-team
Наличие сканов в содержимом раздачи: Да

Треклист:
01. Начни с себя (3:22)
02. Кто я (2:30)
03. Не так (3:22)
04. Помоги мне Господи! (2:14)
05. Муха и пчела (2:49)
06. От меня это было (3:40)
07. Суд идет (3:24)
08. Молитва (2:45)
09. Покаяние (2:32)
10. Притча (2:24)
11. Ты ведь скоро придёшь (2:51)
12. Отчего на душе светло (1:59)
13. Покинувшим Россию (3:20)
14. Ты моя Россия (3:23)
Лог создания рипа
Exact Audio Copy V1.0 beta 3 from 29. August 2011

EAC extraction logfile from 26. November 2014, 18:02

Священик Валерий Логачев / Начни с себя!

Used drive : TSSTcorpCDDVDW SH-224DB Adapter: 1 ID: 1

Read mode : Secure
Utilize accurate stream : Yes
Defeat audio cache : Yes
Make use of C2 pointers : No

Read offset correction : 6
Overread into Lead-In and Lead-Out : No
Fill up missing offset samples with silence : Yes
Delete leading and trailing silent blocks : No
Null samples used in CRC calculations : Yes
Used interface : Native Win32 interface for Win NT & 2000
Gap handling : Appended to previous track

Used output format : User Defined Encoder
Selected bitrate : 1024 kBit/s
Quality : High
Add ID3 tag : No
Command line compressor : C:\Program Files\Exact Audio Copy\Flac\flac.exe
Additional command line options : -V -8 -T "Genre=%genre%" -T "Artist=%artist%" -T "Title=%title%" -T "Album=%albumtitle%" -T "Date=%year%" -T "Tracknumber=%tracknr%" -T "COMPOSER=%composer%" %haslyrics%--tag-from-file=LYRICS="%lyricsfile%"%haslyrics% -T "TOTALTRACKS=%numtracks%" -T "Comment=%comment%" %source%

TOC of the extracted CD

Track | Start | Length | Start sector | End sector
---------------------------------------------------------
1 | 0:00.00 | 3:22.29 | 0 | 15178
2 | 3:22.29 | 2:30.00 | 15179 | 26428
3 | 5:52.29 | 3:22.19 | 26429 | 41597
4 | 9:14.48 | 2:13.71 | 41598 | 51643
5 | 11:28.44 | 2:48.60 | 51644 | 64303
6 | 14:17.29 | 3:39.69 | 64304 | 80797
7 | 17:57.23 | 3:23.65 | 80798 | 96087
8 | 21:21.13 | 2:44.62 | 96088 | 108449
9 | 24:06.00 | 2:31.50 | 108450 | 119824
10 | 26:37.50 | 2:23.40 | 119825 | 130589
11 | 29:01.15 | 2:50.53 | 130590 | 143392
12 | 31:51.68 | 1:59.00 | 143393 | 152317
13 | 33:50.68 | 3:20.00 | 152318 | 167317
14 | 37:10.68 | 3:22.62 | 167318 | 182529

Track 1

Filename D:\CD\ser_8\Священик Валерий Логачев - Начни с себя! (2012) [flac]\01. Священик Валерий Логачев - Начни с себя.wav

Pre-gap length 0:00:02.00

Peak level 100.0 %
Extraction speed 1.9 X
Track quality 100.0 %
Test CRC 6F97109A
Copy CRC 6F97109A
Track not present in AccurateRip database
Copy OK

Track 2

Filename D:\CD\ser_8\Священик Валерий Логачев - Начни с себя! (2012) [flac]\02. Священик Валерий Логачев - Кто я.wav

Peak level 100.0 %
Extraction speed 1.9 X
Track quality 100.0 %
Test CRC 47A352A6
Copy CRC 47A352A6
Track not present in AccurateRip database
Copy OK

Track 3

Filename D:\CD\ser_8\Священик Валерий Логачев - Начни с себя! (2012) [flac]\03. Священик Валерий Логачев - Не так.wav

Peak level 100.0 %
Extraction speed 2.1 X
Track quality 100.0 %
Test CRC 6E902F4F
Copy CRC 6E902F4F
Track not present in AccurateRip database
Copy OK

Track 4

Filename D:\CD\ser_8\Священик Валерий Логачев - Начни с себя! (2012) [flac]\04. Священик Валерий Логачев - Помоги мне Господи!.wav

Peak level 100.0 %
Extraction speed 2.1 X
Track quality 100.0 %
Test CRC 7E798C82
Copy CRC 7E798C82
Track not present in AccurateRip database
Copy OK

Track 5

Filename D:\CD\ser_8\Священик Валерий Логачев - Начни с себя! (2012) [flac]\05. Священик Валерий Логачев - Муха и пчела.wav

Peak level 100.0 %
Extraction speed 2.3 X
Track quality 100.0 %
Test CRC F2BFF49A
Copy CRC F2BFF49A
Track not present in AccurateRip database
Copy OK

Track 6

Filename D:\CD\ser_8\Священик Валерий Логачев - Начни с себя! (2012) [flac]\06. Священик Валерий Логачев - От меня это было.wav

Peak level 100.0 %
Extraction speed 2.5 X
Track quality 100.0 %
Test CRC F9FE0242
Copy CRC F9FE0242
Track not present in AccurateRip database
Copy OK

Track 7

Filename D:\CD\ser_8\Священик Валерий Логачев - Начни с себя! (2012) [flac]\07. Священик Валерий Логачев - Суд идет.wav

Peak level 99.9 %
Extraction speed 2.0 X
Track quality 99.9 %
Test CRC 880CC7CD
Copy CRC 880CC7CD
Track not present in AccurateRip database
Copy OK

Track 8

Filename D:\CD\ser_8\Священик Валерий Логачев - Начни с себя! (2012) [flac]\08. Священик Валерий Логачев - Молитва.wav

Peak level 100.0 %
Extraction speed 2.6 X
Track quality 100.0 %
Test CRC 27A4EA52
Copy CRC 27A4EA52
Track not present in AccurateRip database
Copy OK

Track 9

Filename D:\CD\ser_8\Священик Валерий Логачев - Начни с себя! (2012) [flac]\09. Священик Валерий Логачев - Покаяние.wav

Peak level 100.0 %
Extraction speed 2.6 X
Track quality 100.0 %
Test CRC ABCDB255
Copy CRC ABCDB255
Track not present in AccurateRip database
Copy OK

Track 10

Filename D:\CD\ser_8\Священик Валерий Логачев - Начни с себя! (2012) [flac]\10. Священик Валерий Логачев - Притча.wav

Peak level 99.8 %
Extraction speed 2.7 X
Track quality 100.0 %
Test CRC 5FFD8F4D
Copy CRC 5FFD8F4D
Track not present in AccurateRip database
Copy OK

Track 11

Filename D:\CD\ser_8\Священик Валерий Логачев - Начни с себя! (2012) [flac]\11. Священик Валерий Логачев - Ты ведь скоро придёшь.wav

Peak level 100.0 %
Extraction speed 2.8 X
Track quality 100.0 %
Test CRC BE16F91D
Copy CRC BE16F91D
Track not present in AccurateRip database
Copy OK

Track 12

Filename D:\CD\ser_8\Священик Валерий Логачев - Начни с себя! (2012) [flac]\12. Священик Валерий Логачев - Отчего на душе светло.wav

Peak level 100.0 %
Extraction speed 2.7 X
Track quality 100.0 %
Test CRC D501510C
Copy CRC D501510C
Track not present in AccurateRip database
Copy OK

Track 13

Filename D:\CD\ser_8\Священик Валерий Логачев - Начни с себя! (2012) [flac]\13. Священик Валерий Логачев - Покинувшим Россию.wav

Peak level 100.0 %
Extraction speed 3.0 X
Track quality 100.0 %
Test CRC 16846CF1
Copy CRC 16846CF1
Track not present in AccurateRip database
Copy OK

Track 14

Filename D:\CD\ser_8\Священик Валерий Логачев - Начни с себя! (2012) [flac]\14. Священик Валерий Логачев - Ты моя Россия.wav

Peak level 100.0 %
Extraction speed 2.4 X
Track quality 99.9 %
Test CRC 662126B9
Copy CRC 662126B9
Track not present in AccurateRip database
Copy OK

None of the tracks are present in the AccurateRip database

No errors occurred

End of status report

==== Log checksum 6BAE50F06FAB9BAC589873D10C49B9E17E2C2415AC885A92E7B01CDB332A8792 ====
Содержание индексной карты (.CUE)
REM GENRE Other
REM DATE 2012
REM DISCID BE09810E
REM COMMENT "ExactAudioCopy v1.0b3"
PERFORMER "Священик Валерий Логачев"
TITLE "Начни с себя!"
FILE "01. Священик Валерий Логачев - Начни с себя.wav" WAVE
TRACK 01 AUDIO
TITLE "Начни с себя"
PERFORMER "Священик Валерий Логачев"
ISRC 000000000000
INDEX 01 00:00:00
FILE "02. Священик Валерий Логачев - Кто я.wav" WAVE
TRACK 02 AUDIO
TITLE "Кто я"
PERFORMER "Священик Валерий Логачев"
ISRC 000000000000
INDEX 01 00:00:00
FILE "03. Священик Валерий Логачев - Не так.wav" WAVE
TRACK 03 AUDIO
TITLE "Не так"
PERFORMER "Священик Валерий Логачев"
ISRC 000000000000
INDEX 01 00:00:00
FILE "04. Священик Валерий Логачев - Помоги мне Господи!.wav" WAVE
TRACK 04 AUDIO
TITLE "Помоги мне Господи!"
PERFORMER "Священик Валерий Логачев"
ISRC 000000000000
INDEX 01 00:00:00
FILE "05. Священик Валерий Логачев - Муха и пчела.wav" WAVE
TRACK 05 AUDIO
TITLE "Муха и пчела"
PERFORMER "Священик Валерий Логачев"
ISRC 000000000000
INDEX 01 00:00:00
FILE "06. Священик Валерий Логачев - От меня это было.wav" WAVE
TRACK 06 AUDIO
TITLE "От меня это было"
PERFORMER "Священик Валерий Логачев"
ISRC 000000000000
INDEX 01 00:00:00
FILE "07. Священик Валерий Логачев - Суд идет.wav" WAVE
TRACK 07 AUDIO
TITLE "Суд идет"
PERFORMER "Священик Валерий Логачев"
ISRC 000000000000
INDEX 01 00:00:00
FILE "08. Священик Валерий Логачев - Молитва.wav" WAVE
TRACK 08 AUDIO
TITLE "Молитва"
PERFORMER "Священик Валерий Логачев"
ISRC 000000000000
INDEX 01 00:00:00
FILE "09. Священик Валерий Логачев - Покаяние.wav" WAVE
TRACK 09 AUDIO
TITLE "Покаяние"
PERFORMER "Священик Валерий Логачев"
ISRC 000000000000
INDEX 01 00:00:00
FILE "10. Священик Валерий Логачев - Притча.wav" WAVE
TRACK 10 AUDIO
TITLE "Притча"
PERFORMER "Священик Валерий Логачев"
ISRC 000000000000
INDEX 01 00:00:00
FILE "11. Священик Валерий Логачев - Ты ведь скоро придёшь.wav" WAVE
TRACK 11 AUDIO
TITLE "Ты ведь скоро придёшь"
PERFORMER "Священик Валерий Логачев"
ISRC 000000000000
INDEX 01 00:00:00
FILE "12. Священик Валерий Логачев - Отчего на душе светло.wav" WAVE
TRACK 12 AUDIO
TITLE "Отчего на душе светло"
PERFORMER "Священик Валерий Логачев"
ISRC 000000000000
INDEX 01 00:00:00
FILE "13. Священик Валерий Логачев - Покинувшим Россию.wav" WAVE
TRACK 13 AUDIO
TITLE "Покинувшим Россию"
PERFORMER "Священик Валерий Логачев"
ISRC 000000000000
INDEX 01 00:00:00
FILE "14. Священик Валерий Логачев - Ты моя Россия.wav" WAVE
TRACK 14 AUDIO
TITLE "Ты моя Россия"
PERFORMER "Священик Валерий Логачев"
ISRC 000000000000
INDEX 01 00:00:00
Лог проверки качества
-----------------------

DON'T MODIFY THIS FILE

-----------------------

PERFORMER: auCDtect Task Manager, ver. 1.6.0 RC1 build 1.6.0.1
Copyright (c) 2008-2010 y-soft. All rights reserved
http://y-soft.org

ANALYZER: auCDtect: CD records authenticity detector, version 0.8.2
Copyright (c) 2004 Oleg Berngardt. All rights reserved.
Copyright (c) 2004 Alexander Djourik. All rights reserved.

FILE: 14. Священик Валерий Логачев - Ты моя Россия.flac
Size: 22332583 Hash: 9C56B1407C0E46660D0F2225BCFF45C0 Accuracy: -m0
Conclusion: CDDA 100%
Signature: 372BF9B9DDD2F24FDC258C449CA40BC004020E5A
FILE: 13. Священик Валерий Логачев - Покинувшим Россию.flac
Size: 18238906 Hash: 4CB993D4C3DE95F65BD5A2DDD70A5488 Accuracy: -m0
Conclusion: CDDA 100%
Signature: 0558A1ADB20DC51ED453CFD3B844B5EB553A5EB7
FILE: 12. Священик Валерий Логачев - Отчего на душе светло.flac
Size: 12014221 Hash: DAB3E6BBD7290894D6D3C5E1AD17DFDF Accuracy: -m0
Conclusion: CDDA 100%
Signature: DEC6656E16134E87F6E45EE8F2647EEE33427856
FILE: 11. Священик Валерий Логачев - Ты ведь скоро придёшь.flac
Size: 17306181 Hash: D8D00A6693E8E98700AFFA0BFC472F0E Accuracy: -m0
Conclusion: CDDA 100%
Signature: 1C04BA418525637E4BCBF1DD8743F69EECA92529
FILE: 10. Священик Валерий Логачев - Притча.flac
Size: 14698299 Hash: 1BB33BCDB8715C12278B557946B142AD Accuracy: -m0
Conclusion: CDDA 100%
Signature: 3F6E0507240E6208C22550E9AFB931DEE6121711
FILE: 09. Священик Валерий Логачев - Покаяние.flac
Size: 15686524 Hash: 15FFBF370AE697AF4F06103FAF1C0CF2 Accuracy: -m0
Conclusion: CDDA 100%
Signature: BFFAA2BD2FAE7297F4C84136EB75C6E02F90FB89
FILE: 08. Священик Валерий Логачев - Молитва.flac
Size: 15944898 Hash: 172BB44DFAEDCF296805AF705FE0E467 Accuracy: -m0
Conclusion: CDDA 100%
Signature: 36B67A8BE15434C29B283464F196FF323288BE78
FILE: 07. Священик Валерий Логачев - Суд идет.flac
Size: 19096445 Hash: 85F13FA8F116B944DE01152EA5BFC2E7 Accuracy: -m0
Conclusion: CDDA 99%
Signature: 29C48105BA8D2066D6C1C148C629503FC4A457D2
FILE: 06. Священик Валерий Логачев - От меня это было.flac
Size: 24229479 Hash: 1B3DCED20752E5FF227780A4E915B014 Accuracy: -m0
Conclusion: CDDA 100%
Signature: A2EB17A74B2FAD5FEB27244F202C91A90C2F472E
FILE: 05. Священик Валерий Логачев - Муха и пчела.flac
Size: 16835278 Hash: 592A4F714C6041D58D5078CDAB553F8F Accuracy: -m0
Conclusion: CDDA 100%
Signature: 1F380F4AEC2A46E0D6423DCD6ABBC893AE565AB4
FILE: 04. Священик Валерий Логачев - Помоги мне Господи!.flac
Size: 12806956 Hash: 8A5C8F2F430518AE1442F517D5FA5FB1 Accuracy: -m0
Conclusion: CDDA 99%
Signature: 06EA59BD420DC504B30A01609F8E0B2E688E2754
FILE: 03. Священик Валерий Логачев - Не так.flac
Size: 21175678 Hash: E985B099956568A42FE4C6632154BCE5 Accuracy: -m0
Conclusion: CDDA 99%
Signature: 06400290B69C32F8B93F867AF6BEDB319602617A
FILE: 02. Священик Валерий Логачев - Кто я.flac
Size: 13419555 Hash: 01C196023F252F1ED3FAFD88818210E5 Accuracy: -m0
Conclusion: CDDA 99%
Signature: D25EBEC7DF91D1856CD8B4D0EA14142C6DF9FAAC
FILE: 01. Священик Валерий Логачев - Начни с себя.flac
Size: 20571650 Hash: 693B0317A1E39D3AFE38B867F6B09F5C Accuracy: -m0
Conclusion: CDDA 100%
Signature: BE152CD97C4630335863802CBEF40FBED3790DC4
Download

Войдите для скачивания торрент-файла

Как скачивать  ·   Правила трекера

[Профиль]  [ЛС] 
Показать сообщения:    
Ответить на тему

Текущее время: 09-Дек 02:13

Часовой пояс: GMT + 4



Вы не можете начинать темы
Вы не можете отвечать на сообщения
Вы не можете редактировать свои сообщения
Вы не можете удалять свои сообщения
Вы не можете голосовать в опросах
Вы не можете прикреплять файлы к сообщениям
Вы не можете скачивать файлы