Loading...
Error

Погребение святейшего патриарха Алексия 2 (неизвестно) [2000 г., Богослужение, DVD5]

Ответить на тему
Статистика раздачи
Скачали: [ 4 ]
   
 
Автор Сообщение

stepan-frunze

Стаж: 7 лет 9 месяцев

Сообщений: 2565

Russia

post 26-Окт-2013 17:18

[Цитировать] 

Погребение святейшего патриарха Алексия 2

pic
Год выпуска: 2009
Жанр: Богослужение
Продолжительность: 240 мин

Режиссер: неизвестно

Описание: Начало Богослужения
Божественная Литургия
Отпевание
Крестный ход

Дополнительная информация:

Качество: DVD5
Формат: DVD Video
Видео кодек: MPEG2
Аудио кодек: AC3
Видео: MPEG 2, 352x288 (4:3), 25.000 fps, 2 600 Kbps (0.720 bit/pixel)
Аудио: AC-3, 48.0 KHz, 2 ch, 128 Kbps, CBR
Скриншоты
pic pic pic pic

pic pic pic pic

pic pic pic
MediaInfo
Общее
Полное имя : C:\На раздаче\Погребение святейшего патриарха Алексия 2\VIDEO_TS\VIDEO_TS.BUP
Формат : DVD Video
Профиль формата : Menu
Размер файла : 12,0 Кбайт
Режим общего битрейта : Переменный

Видео
Идентификатор : 224 (0xE0)
Формат : MPEG Video
Версия формата : Version 2
Вид битрейта : Переменный
Ширина : 720 пикселей
Высота : 576 пикселей
Соотношение сторон : 4:3
Частота кадров : 25,000 кадров/сек
Стандарт вещания : PAL
Метод сжатия : С потерями

Общее
Полное имя : C:\На раздаче\Погребение святейшего патриарха Алексия 2\VIDEO_TS\VIDEO_TS.IFO
Формат : DVD Video
Профиль формата : Menu
Размер файла : 12,0 Кбайт
Режим общего битрейта : Переменный

Видео
Идентификатор : 224 (0xE0)
Формат : MPEG Video
Версия формата : Version 2
Вид битрейта : Переменный
Ширина : 720 пикселей
Высота : 576 пикселей
Соотношение сторон : 4:3
Частота кадров : 25,000 кадров/сек
Стандарт вещания : PAL
Метод сжатия : С потерями

Общее
Полное имя : C:\На раздаче\Погребение святейшего патриарха Алексия 2\VIDEO_TS\VIDEO_TS.VOB
Формат : MPEG-PS
Размер файла : 48,0 Кбайт
Продолжительность : 40 мс.
Режим общего битрейта : Переменный
Общий поток : 9830 Кбит/сек

Видео
Идентификатор : 224 (0xE0)
Формат : MPEG Video
Версия формата : Version 2
Профиль формата : Main@Main
Параметр BVOP формата : Нет
Параметр матрицы формата : По умолчанию
Продолжительность : 40 мс.
Вид битрейта : Переменный
Максимальный битрейт : 9000 Кбит/сек
Ширина : 720 пикселей
Высота : 576 пикселей
Соотношение сторон : 4:3
Частота кадров : 25,000 кадров/сек
Стандарт вещания : PAL
Цветовое пространство : YUV
Субдискретизация насыщенности : 4:2:0
Битовая глубина : 8 бит
Тип развёртки : Прогрессивная
Порядок развёртки : Верхнее поле первое
Метод сжатия : С потерями
Временной код первого кадра : 00:00:00:00
Оригинал временного кода : Group of pictures header
Основные цвета : BT.601 PAL
Характеристики трансфера : BT.470 System B, BT.470 System G
Коэффициенты матрицы : BT.601

Меню

Общее
Полное имя : C:\На раздаче\Погребение святейшего патриарха Алексия 2\VIDEO_TS\VTS_01_0.BUP
Формат : DVD Video
Профиль формата : Program
Размер файла : 188 Кбайт
Продолжительность : 1 ч. 50 м.
Режим общего битрейта : Переменный
Общий поток : 231 бит/сек

Видео
Идентификатор : 224 (0xE0)
Формат : MPEG Video
Версия формата : Version 2
Продолжительность : 1 ч. 50 м.
Вид битрейта : Переменный
Ширина : 352 пикселя
Высота : 288 пикселей
Соотношение сторон : 4:3
Частота кадров : 25,000 кадров/сек
Стандарт вещания : PAL
Метод сжатия : С потерями

Аудио
Идентификатор : 128 (0x80)
Формат : AC-3
Формат/Информация : Audio Coding 3
Продолжительность : 1 ч. 50 м.
Каналы : 2 канала
Частота : 48,0 КГц
Метод сжатия : С потерями
Язык : English

Меню #1
Продолжительность : 1 ч. 50 м.
00:00:00.000 : Chapter 1
00:15:58.960 : Chapter 2
00:31:43.960 : Chapter 3
00:47:47.560 : Chapter 4
01:03:33.160 : Chapter 5
01:19:28.960 : Chapter 6
01:35:22.960 : Chapter 7
List (Audio) : 0

Меню #2
Продолжительность : 1 ч. 18 м.
00:00:00.000 : Chapter 1
00:00:15.600 : Chapter 2
00:01:04.600 : Chapter 3
00:01:19.640 : Chapter 4
00:01:34.720 : Chapter 5
List (Audio) : 0

Общее
Полное имя : C:\На раздаче\Погребение святейшего патриарха Алексия 2\VIDEO_TS\VTS_01_0.IFO
Формат : DVD Video
Профиль формата : Program
Размер файла : 188 Кбайт
Продолжительность : 1 ч. 50 м.
Режим общего битрейта : Переменный
Общий поток : 231 бит/сек

Видео
Идентификатор : 224 (0xE0)
Формат : MPEG Video
Версия формата : Version 2
Продолжительность : 1 ч. 50 м.
Вид битрейта : Переменный
Ширина : 352 пикселя
Высота : 288 пикселей
Соотношение сторон : 4:3
Частота кадров : 25,000 кадров/сек
Стандарт вещания : PAL
Метод сжатия : С потерями

Аудио
Идентификатор : 128 (0x80)
Формат : AC-3
Формат/Информация : Audio Coding 3
Продолжительность : 1 ч. 50 м.
Каналы : 2 канала
Частота : 48,0 КГц
Метод сжатия : С потерями
Язык : English

Меню #1
Продолжительность : 1 ч. 50 м.
00:00:00.000 : Chapter 1
00:15:58.960 : Chapter 2
00:31:43.960 : Chapter 3
00:47:47.560 : Chapter 4
01:03:33.160 : Chapter 5
01:19:28.960 : Chapter 6
01:35:22.960 : Chapter 7
List (Audio) : 0

Меню #2
Продолжительность : 1 ч. 18 м.
00:00:00.000 : Chapter 1
00:00:15.600 : Chapter 2
00:01:04.600 : Chapter 3
00:01:19.640 : Chapter 4
00:01:34.720 : Chapter 5
List (Audio) : 0

Общее
Полное имя : C:\На раздаче\Погребение святейшего патриарха Алексия 2\VIDEO_TS\VTS_01_0.VOB
Формат : MPEG-PS
Размер файла : 5,00 Мбайт
Продолжительность : 3 м. 0 с.
Режим общего битрейта : Переменный
Общий поток : 233 Кбит/сек

Видео
Идентификатор : 224 (0xE0)
Формат : MPEG Video
Версия формата : Version 2
Профиль формата : Main@Main
Параметр BVOP формата : Нет
Параметр матрицы формата : По умолчанию
Продолжительность : 40 мс.
Вид битрейта : Переменный
Битрейт : 36,0 Кбит/сек
Максимальный битрейт : 9000 Кбит/сек
Ширина : 720 пикселей
Высота : 576 пикселей
Соотношение сторон : 4:3
Частота кадров : 25,000 кадров/сек
Стандарт вещания : PAL
Цветовое пространство : YUV
Субдискретизация насыщенности : 4:2:0
Битовая глубина : 8 бит
Тип развёртки : Прогрессивная
Порядок развёртки : Верхнее поле первое
Метод сжатия : С потерями
Бит/(Пиксели*Кадры) : 0.003
Временной код первого кадра : 00:00:00:00
Оригинал временного кода : Group of pictures header
Размер потока : 180 байт (0%)
Основные цвета : BT.601 PAL
Характеристики трансфера : BT.470 System B, BT.470 System G
Коэффициенты матрицы : BT.601

Аудио
Идентификатор : 189 (0xBD)-128 (0x80)
Формат : AC-3
Формат/Информация : Audio Coding 3
Расширение режима : CM (complete main)
Параметр Endianness формата : Big
Режим смешивания : DVD-Video
Продолжительность : 3 м. 0 с.
Вид битрейта : Постоянный
Битрейт : 192 Кбит/сек
Каналы : 2 канала
Расположение каналов : Front: L R
Частота : 48,0 КГц
Битовая глубина : 16 бит
Метод сжатия : С потерями
Размер потока : 4,13 Мбайт (83%)

Текст
Идентификатор : 189 (0xBD)-32 (0x20)
Формат : RLE
Формат/Информация : Run-length encoding
Режим смешивания : DVD-Video
Продолжительность : 192 мс.

Меню

Общее
Полное имя : C:\На раздаче\Погребение святейшего патриарха Алексия 2\VIDEO_TS\VTS_01_1.VOB
Формат : MPEG-PS
Размер файла : 1000 Мбайт
Продолжительность : 1 ч. 10 м.
Режим общего битрейта : Переменный
Общий поток : 1992 Кбит/сек
Библиотека кодирования : (c) 1997-2004 Womble Multimedia, Inc. / MPEG Video Wizard (07/2004) / Aug 26 2004

Видео
Идентификатор : 224 (0xE0)
Формат : MPEG Video
Версия формата : Version 2
Профиль формата : Main@Main
Параметр BVOP формата : Нет
Параметр матрицы формата : По умолчанию
Параметр GOP формата : Variable
Продолжительность : 1 ч. 10 м.
Вид битрейта : Переменный
Битрейт : 1825 Кбит/сек
Максимальный битрейт : 2600 Кбит/сек
Ширина : 352 пикселя
Высота : 288 пикселей
Соотношение сторон : 4:3
Частота кадров : 25,000 кадров/сек
Стандарт вещания : PAL
Цветовое пространство : YUV
Субдискретизация насыщенности : 4:2:0
Битовая глубина : 8 бит
Тип развёртки : Прогрессивная
Метод сжатия : С потерями
Бит/(Пиксели*Кадры) : 0.720
Временной код первого кадра : 00:00:00:00
Оригинал временного кода : Group of pictures header
Размер потока : 916 Мбайт (92%)
Библиотека кодирования : (c) 1997-2004 Womble Multimedia, Inc. / MPEG Video Wizard (07/2004) / Aug 26 2004

Аудио
Идентификатор : 189 (0xBD)-128 (0x80)
Формат : AC-3
Формат/Информация : Audio Coding 3
Расширение режима : CM (complete main)
Параметр Endianness формата : Big
Режим смешивания : DVD-Video
Продолжительность : 1 ч. 10 м.
Вид битрейта : Постоянный
Битрейт : 128 Кбит/сек
Каналы : 2 канала
Расположение каналов : Front: L R
Частота : 48,0 КГц
Битовая глубина : 16 бит
Метод сжатия : С потерями
Размер потока : 64,3 Мбайт (6%)

Меню

Общее
Полное имя : C:\На раздаче\Погребение святейшего патриарха Алексия 2\VIDEO_TS\VTS_01_2.VOB
Формат : MPEG-PS
Размер файла : 1000 Мбайт
Режим общего битрейта : Переменный

Видео
Идентификатор : 224 (0xE0)
Формат : MPEG Video
Версия формата : Version 2
Профиль формата : Main@Main
Параметр BVOP формата : Нет
Параметр матрицы формата : По умолчанию
Параметр GOP формата : N=15
Вид битрейта : Переменный
Максимальный битрейт : 2600 Кбит/сек
Ширина : 352 пикселя
Высота : 288 пикселей
Соотношение сторон : 4:3
Частота кадров : 25,000 кадров/сек
Стандарт вещания : PAL
Цветовое пространство : YUV
Субдискретизация насыщенности : 4:2:0
Битовая глубина : 8 бит
Тип развёртки : Прогрессивная
Метод сжатия : С потерями
Временной код первого кадра : 01:10:10:24
Оригинал временного кода : Group of pictures header

Аудио
Идентификатор : 189 (0xBD)-128 (0x80)
Формат : AC-3
Формат/Информация : Audio Coding 3
Расширение режима : CM (complete main)
Параметр Endianness формата : Big
Режим смешивания : DVD-Video
Вид битрейта : Постоянный
Битрейт : 128 Кбит/сек
Каналы : 2 канала
Расположение каналов : Front: L R
Частота : 48,0 КГц
Битовая глубина : 16 бит
Метод сжатия : С потерями
Задержка видео : -144 мс.

Меню

Общее
Полное имя : C:\На раздаче\Погребение святейшего патриарха Алексия 2\VIDEO_TS\VTS_01_3.VOB
Формат : MPEG-PS
Размер файла : 1000 Мбайт
Продолжительность : 6 м. 3 с.
Режим общего битрейта : Переменный
Общий поток : 23,0 Мбит/сек

Видео
Идентификатор : 224 (0xE0)
Формат : MPEG Video
Версия формата : Version 2
Профиль формата : Main@Main
Параметр BVOP формата : Нет
Параметр матрицы формата : По умолчанию
Параметр GOP формата : N=15
Продолжительность : 6 м. 3 с.
Вид битрейта : Переменный
Битрейт : 22,5 Мбит/сек
Максимальный битрейт : 2600 Кбит/сек
Ширина : 352 пикселя
Высота : 288 пикселей
Соотношение сторон : 4:3
Частота кадров : 25,000 кадров/сек
Стандарт вещания : PAL
Цветовое пространство : YUV
Субдискретизация насыщенности : 4:2:0
Битовая глубина : 8 бит
Тип развёртки : Прогрессивная
Метод сжатия : С потерями
Бит/(Пиксели*Кадры) : 8.863
Временной код первого кадра : 00:29:29:08
Оригинал временного кода : Group of pictures header
Размер потока : 975 Мбайт (97%)

Аудио
Идентификатор : 189 (0xBD)-128 (0x80)
Формат : AC-3
Формат/Информация : Audio Coding 3
Расширение режима : CM (complete main)
Параметр Endianness формата : Big
Режим смешивания : DVD-Video
Продолжительность : 6 м. 3 с.
Вид битрейта : Постоянный
Битрейт : 128 Кбит/сек
Каналы : 2 канала
Расположение каналов : Front: L R
Частота : 48,0 КГц
Битовая глубина : 16 бит
Метод сжатия : С потерями
Задержка видео : -136 мс.
Размер потока : 5,55 Мбайт (1%)

Меню

Общее
Полное имя : C:\На раздаче\Погребение святейшего патриарха Алексия 2\VIDEO_TS\VTS_01_4.VOB
Формат : MPEG-PS
Размер файла : 1000 Мбайт
Режим общего битрейта : Переменный

Видео
Идентификатор : 224 (0xE0)
Формат : MPEG Video
Версия формата : Version 2
Профиль формата : Main@Main
Параметр BVOP формата : Нет
Параметр матрицы формата : По умолчанию
Параметр GOP формата : N=15
Вид битрейта : Переменный
Максимальный битрейт : 2600 Кбит/сек
Ширина : 352 пикселя
Высота : 288 пикселей
Соотношение сторон : 4:3
Частота кадров : 25,000 кадров/сек
Стандарт вещания : PAL
Цветовое пространство : YUV
Субдискретизация насыщенности : 4:2:0
Битовая глубина : 8 бит
Тип развёртки : Прогрессивная
Метод сжатия : С потерями
Временной код первого кадра : 00:35:33:07
Оригинал временного кода : Group of pictures header

Аудио
Идентификатор : 189 (0xBD)-128 (0x80)
Формат : AC-3
Формат/Информация : Audio Coding 3
Расширение режима : CM (complete main)
Параметр Endianness формата : Big
Режим смешивания : DVD-Video
Вид битрейта : Постоянный
Битрейт : 128 Кбит/сек
Каналы : 2 канала
Расположение каналов : Front: L R
Частота : 48,0 КГц
Битовая глубина : 16 бит
Метод сжатия : С потерями
Задержка видео : -96 мс.

Меню

Общее
Полное имя : C:\На раздаче\Погребение святейшего патриарха Алексия 2\VIDEO_TS\VTS_01_5.VOB
Формат : MPEG-PS
Размер файла : 273 Мбайт
Продолжительность : 32 м.
Режим общего битрейта : Переменный
Общий поток : 1177 Кбит/сек

Видео
Идентификатор : 224 (0xE0)
Формат : MPEG Video
Версия формата : Version 2
Профиль формата : Main@Main
Параметр BVOP формата : Нет
Параметр матрицы формата : По умолчанию
Параметр GOP формата : Variable
Продолжительность : 32 м.
Вид битрейта : Переменный
Битрейт : 1025 Кбит/сек
Максимальный битрейт : 2600 Кбит/сек
Ширина : 352 пикселя
Высота : 288 пикселей
Соотношение сторон : 4:3
Частота кадров : 25,000 кадров/сек
Стандарт вещания : PAL
Цветовое пространство : YUV
Субдискретизация насыщенности : 4:2:0
Битовая глубина : 8 бит
Тип развёртки : Прогрессивная
Метод сжатия : С потерями
Бит/(Пиксели*Кадры) : 0.404
Временной код первого кадра : 00:05:57:04
Оригинал временного кода : Group of pictures header
Размер потока : 238 Мбайт (87%)

Аудио
Идентификатор : 189 (0xBD)-128 (0x80)
Формат : AC-3
Формат/Информация : Audio Coding 3
Расширение режима : CM (complete main)
Параметр Endianness формата : Big
Режим смешивания : DVD-Video
Продолжительность : 32 м.
Вид битрейта : Постоянный
Битрейт : 128 Кбит/сек
Каналы : 2 канала
Расположение каналов : Front: L R
Частота : 48,0 КГц
Битовая глубина : 16 бит
Метод сжатия : С потерями
Задержка видео : -72 мс.
Размер потока : 29,7 Мбайт (11%)

Меню
DVDinfo
Title: Погребение святейшего патриарха Алексия 2
Size: 4.18 Gb ( 4 380 980,00 KBytes ) - DVD-5
Enabled regions: 1, 2, 3, 4, 5, 6, 7, 8

VTS_01 :
Play Length: 01:50:58+01:18:31+02:27:47+00:38:22
Video: PAL 4:3 (352x288) VBR, Letterboxed
Audio:
English (Dolby AC3, 2 ch)

* Menus Information *

VIDEO_TS Menu
Video:
PAL 4:3 (720x576) VBR
Letterboxed
English Language Unit :
Title Menu

VTS_01 Menu
Video:
PAL 4:3 (720x576) VBR
Audio:
Not specified (Dolby AC3, 2 ch)
English Language Unit :
Root Menu
pic
Download

Войдите для скачивания торрент-файла

Как скачивать  ·   Правила трекера



Последний раз редактировалось: stepan-frunze (2014-06-20 01:17), всего редактировалось 5 раз(а)
[Профиль]  [ЛС] 

stepan-frunze

Стаж: 7 лет 9 месяцев

Сообщений: 2565

Russia

post 21-Апр-2014 00:52 (спустя 5 месяцев 25 дней)

[Цитировать] 

pic
[Профиль]  [ЛС] 

vika010288

Стаж: 7 лет 5 месяцев

Сообщений: 459

Georgia

post 23-Апр-2014 22:57 (спустя 2 дня 22 часа)

[Цитировать] 

Спасибо
[Профиль]  [ЛС] 

Aznikto

Стаж: 6 лет 3 месяца

Сообщений: 85

Russia

post 23-Апр-2014 23:07 (спустя 10 минут)

[Цитировать] 

Странно, год выпуска 2000. Получается, что погребение Святейшего Патриарха Алексия II, Царство ему Небесное, сняли за 8 лет до его представления?
[Профиль]  [ЛС] 

DmMoskva2012

Стаж: 1 год 6 месяцев

Сообщений: 1

Russia

post 18-Окт-2016 15:38 (спустя 2 года 5 месяцев)

[Цитировать] 

Да уж ... Я помню – начало нулевых было пиком моего увлечения Православием . Я в те годы вообще из церкви не выходил и Святейший ( упокой Господь Его душу ! ) был здоров – здоровёшенек ...
[Профиль]  [ЛС] 
Показать сообщения:    
Ответить на тему

Текущее время: 05-Дек 16:44

Часовой пояс: GMT + 4



Вы не можете начинать темы
Вы не можете отвечать на сообщения
Вы не можете редактировать свои сообщения
Вы не можете удалять свои сообщения
Вы не можете голосовать в опросах
Вы не можете прикреплять файлы к сообщениям
Вы не можете скачивать файлы