Loading...
Error

Русская классика № 35 (разные режисёры) [2007 г., Сказки, DVD5]

Ответить на тему
Статистика раздачи
Скачали: [ 4 ]
   
 
Автор Сообщение

stepan-frunze

Стаж: 7 лет 9 месяцев

Сообщений: 2565

Russia

post 26-Окт-2013 23:19

[Цитировать] 

Русская классика № 35

pic
Год выпуска: 2007
Жанр: Сказки
Продолжительность: 8 фильмов в 2 дисках

Режиссер: Вацлав Ворличек, Павел Кадочников,Вацлава Вербовская, Юрий Цветков,Яков Протазанов,Георгий Данелия,Валентин Кадочников, Федор Филиппов,
Давид Черкасский,Александр Птушко

Описание:
Снегурочка
По одноимённой пьесе А.Н. Островского. Снегурочка - дочь Деда Мороза и красавицы Весны. Ее ледяное сердце никогда еще не ведало простых человеческих радостей, и до встречи с Лелем не знало любви. Его чувство открыло девушке богатство окружающего мира, растопило сердце холодной красавицы. В фильме есть и чудесная природа, и веселые хороводы, игры и песни - все, без чего не может быть настоящей русской сказки.

Три орешка для Золушки
Мачеха Золушки всеми силами хочет выдать свою глупую и злую родную дочь замуж за Принца. Но тому совсем не хочется жениться, он ссорится с отцом и собирается покинуть дворец, но... в последний момент он влюбляется в очаровательную незнакомку в маске, которая быстро исчезает. Принц и не догадывается, что эта прекрасная девушка, ловкий стрелок, которого он встретил в лесу и озорная девчонка - одно и то же лицо. Все эти превращения оказались возможными благодаря волшебным орешкам, в одном из которых находился и свадебный подарок для Золушки.

Пастух Янка
Любит пастух Янка ткачиху – мастерицу красавицу Маринку. Но принц Кукимор задумал подарить её королю Дуримонту. Задумал - украл и подарил мастерицу... Узнал об этом Янка, и спешит во дворец выручать Маринку. А по пути деда встречает. Дед тот не простой был. Подарил он пастуху волшебную дудку.

Насреддин в Бухаре
Комедия по роману Л. Соловьева «Возмутитель спокойствия». Благодаря находчивости и выдумке неугомонного весельчака Ходжи Насреддина многим угнетенным и обездоленным удается противостоять жестокому эмиру Бухары.

Совсем пропащий
Приключенческий фильм по мотивам романа Марка Твена «Приключения Геккельбери Финна».

Волшебное зерно
Богатырь, "Мастер На Все Руки", дарит Андрейке и Марийке волшебное зерно, которое должно принести людям радость и изобилие, если дети будут крепко дружить и тщательно заботиться о нем. Копия этого зерна хранится в железном сундуке злого волшебника Кара-Мора, врага всего живого. Кара-Мор, узнав о том, что дети посадили зерно и тщательно оберегают росток, посылает армию вредителей-долгоносиков и требует уничтожить растение, пока оно не принесло плодов — новых зерен счастья и изобилия...

Доктор Аиболит
Доктор Айболит вместе со своими друзьями-животными переживает самые невероятные приключения. Озорной, веселый мультипликационный сериал, с пиратами и погонями, песнями и танцами. Фильм снят по мотивам произведений Корнея Чуковского

Золотой ключик
По одноименной сказке А.Н.Толстого. О приключениях деревянного мальчика Буратино и его друзей - Пьеро, Мальвины и пуделя Артемона, о таинственном золотом ключике, открывающем заветную дверь, о добром папе Карло и злом Карабасе-Барабасе, Дуремаре, коте Базилио и лисе Алисе. Именам главных героев: папы Карло, Буратино, Дуремара, черепахи Тортиллы и других персонажей этого произведения суждено было стать нарицательными — столь велика оказалась популярность этой сказки.

Дополнительная информация: Полиграфия в раздаче!Пожалуиста оставаитесь на раздаче как можно дольше.

Качество: DVD5
Формат: DVD Video
Видео кодек: MPEG2
Аудио кодек: AC3
Видео: MPEG 2, 352x576 (4:3), 25.000 fps, 9 348 Kbps (0.276 bit/pixel)
Аудио: AC-3, 48.0 KHz, 6 ch, 448 Kbps, CBR
Скриншоты первого диска
pic pic pic pic

pic pic pic pic

pic
Скриншоты второго диска
pic pic pic pic

pic pic
MediaInfo первого диска
Общее
Полное имя : C:\На раздаче\Русская классика 35\сторона 1\VIDEO_TS\VIDEO_TS.BUP
Формат : DVD Video
Профиль формата : Menu
Размер файла : 14,0 Кбайт
Режим общего битрейта : Переменный

Видео
Идентификатор : 224 (0xE0)
Формат : MPEG Video
Версия формата : Version 2
Вид битрейта : Переменный
Ширина : 720 пикселей
Высота : 576 пикселей
Соотношение сторон : 4:3
Частота кадров : 25,000 кадров/сек
Стандарт вещания : PAL
Метод сжатия : С потерями

Аудио
Формат : AC-3
Формат/Информация : Audio Coding 3
Каналы : 2 канала
Частота : 48,0 КГц
Метод сжатия : С потерями

Текст
Формат : RLE
Формат/Информация : Run-length encoding
Битовая глубина : 2 бит

Общее
Полное имя : C:\На раздаче\Русская классика 35\сторона 1\VIDEO_TS\VIDEO_TS.IFO
Формат : DVD Video
Профиль формата : Menu
Размер файла : 14,0 Кбайт
Режим общего битрейта : Переменный

Видео
Идентификатор : 224 (0xE0)
Формат : MPEG Video
Версия формата : Version 2
Вид битрейта : Переменный
Ширина : 720 пикселей
Высота : 576 пикселей
Соотношение сторон : 4:3
Частота кадров : 25,000 кадров/сек
Стандарт вещания : PAL
Метод сжатия : С потерями

Аудио
Формат : AC-3
Формат/Информация : Audio Coding 3
Каналы : 2 канала
Частота : 48,0 КГц
Метод сжатия : С потерями

Текст
Формат : RLE
Формат/Информация : Run-length encoding
Битовая глубина : 2 бит

Общее
Полное имя : C:\На раздаче\Русская классика 35\сторона 1\VIDEO_TS\VIDEO_TS.VOB
Формат : MPEG-PS
Размер файла : 5,46 Мбайт
Продолжительность : 615 мс.
Режим общего битрейта : Переменный
Общий поток : 74,4 Мбит/сек

Видео
Идентификатор : 224 (0xE0)
Формат : MPEG Video
Версия формата : Version 2
Профиль формата : Main@Main
Параметр BVOP формата : Да
Параметр матрицы формата : Выборочная
Параметр GOP формата : Variable
Продолжительность : 615 мс.
Вид битрейта : Переменный
Максимальный битрейт : 9000 Кбит/сек
Ширина : 720 пикселей
Высота : 576 пикселей
Соотношение сторон : 4:3
Частота кадров : 25,000 кадров/сек
Стандарт вещания : PAL
Цветовое пространство : YUV
Субдискретизация насыщенности : 4:2:0
Битовая глубина : 8 бит
Тип развёртки : Чересстрочная
Порядок развёртки : Нижнее поле первое
Метод сжатия : С потерями
Временной код первого кадра : 00:00:00:00
Оригинал временного кода : Group of pictures header

Аудио
Идентификатор : 189 (0xBD)-128 (0x80)
Формат : AC-3
Формат/Информация : Audio Coding 3
Расширение режима : CM (complete main)
Параметр Endianness формата : Big
Режим смешивания : DVD-Video
Продолжительность : 615 мс.
Вид битрейта : Постоянный
Битрейт : 256 Кбит/сек
Каналы : 2 канала
Расположение каналов : Front: L R
Частота : 48,0 КГц
Битовая глубина : 16 бит
Метод сжатия : С потерями
Размер потока : 19,2 Кбайт (0%)

Текст
Идентификатор : 189 (0xBD)-32 (0x20)
Формат : RLE
Формат/Информация : Run-length encoding
Режим смешивания : DVD-Video

Меню

Общее
Полное имя : C:\На раздаче\Русская классика 35\сторона 1\VIDEO_TS\VTS_01_0.BUP
Формат : DVD Video
Профиль формата : Program
Размер файла : 56,0 Кбайт
Продолжительность : 1 ч. 32 м.
Режим общего битрейта : Переменный
Общий поток : 82 бит/сек

Видео
Идентификатор : 224 (0xE0)
Формат : MPEG Video
Версия формата : Version 2
Продолжительность : 1 ч. 32 м.
Вид битрейта : Переменный
Ширина : 352 пикселя
Высота : 576 пикселей
Соотношение сторон : 4:3
Частота кадров : 25,000 кадров/сек
Стандарт вещания : PAL
Метод сжатия : С потерями

Аудио
Идентификатор : 128 (0x80)
Формат : AC-3
Формат/Информация : Audio Coding 3
Продолжительность : 1 ч. 32 м.
Каналы : 6 каналов
Частота : 48,0 КГц
Метод сжатия : С потерями
Язык : Russian

Меню
Продолжительность : 1 ч. 32 м.
00:00:00.000 : Chapter 1
00:07:46.160 : Chapter 2
00:16:53.800 : Chapter 3
00:25:13.760 : Chapter 4
00:32:45.000 : Chapter 5
00:41:54.640 : Chapter 6
00:49:44.880 : Chapter 7
00:57:49.600 : Chapter 8
01:03:03.040 : Chapter 9
01:11:31.880 : Chapter 10
01:19:46.720 : Chapter 11
01:32:51.080 : Chapter 12
List (Audio) : 0

Общее
Полное имя : C:\На раздаче\Русская классика 35\сторона 1\VIDEO_TS\VTS_01_0.IFO
Формат : DVD Video
Профиль формата : Program
Размер файла : 56,0 Кбайт
Продолжительность : 1 ч. 32 м.
Режим общего битрейта : Переменный
Общий поток : 82 бит/сек

Видео
Идентификатор : 224 (0xE0)
Формат : MPEG Video
Версия формата : Version 2
Продолжительность : 1 ч. 32 м.
Вид битрейта : Переменный
Ширина : 352 пикселя
Высота : 576 пикселей
Соотношение сторон : 4:3
Частота кадров : 25,000 кадров/сек
Стандарт вещания : PAL
Метод сжатия : С потерями

Аудио
Идентификатор : 128 (0x80)
Формат : AC-3
Формат/Информация : Audio Coding 3
Продолжительность : 1 ч. 32 м.
Каналы : 6 каналов
Частота : 48,0 КГц
Метод сжатия : С потерями
Язык : Russian

Меню
Продолжительность : 1 ч. 32 м.
00:00:00.000 : Chapter 1
00:07:46.160 : Chapter 2
00:16:53.800 : Chapter 3
00:25:13.760 : Chapter 4
00:32:45.000 : Chapter 5
00:41:54.640 : Chapter 6
00:49:44.880 : Chapter 7
00:57:49.600 : Chapter 8
01:03:03.040 : Chapter 9
01:11:31.880 : Chapter 10
01:19:46.720 : Chapter 11
01:32:51.080 : Chapter 12
List (Audio) : 0

Общее
Полное имя : C:\На раздаче\Русская классика 35\сторона 1\VIDEO_TS\VTS_01_1.VOB
Формат : MPEG-PS
Размер файла : 1024 Мбайт
Продолжительность : 1 ч. 15 м.
Режим общего битрейта : Переменный
Общий поток : 1885 Кбит/сек

Видео
Идентификатор : 224 (0xE0)
Формат : MPEG Video
Версия формата : Version 2
Профиль формата : Main@Main
Параметр BVOP формата : Да
Параметр матрицы формата : Выборочная
Параметр GOP формата : M=3, N=15
Продолжительность : 1 ч. 15 м.
Вид битрейта : Переменный
Битрейт : 1399 Кбит/сек
Максимальный битрейт : 9348 Кбит/сек
Ширина : 352 пикселя
Высота : 576 пикселей
Соотношение сторон : 4:3
Частота кадров : 25,000 кадров/сек
Стандарт вещания : PAL
Цветовое пространство : YUV
Субдискретизация насыщенности : 4:2:0
Битовая глубина : 8 бит
Тип развёртки : Чересстрочная
Порядок развёртки : Верхнее поле первое
Метод сжатия : С потерями
Бит/(Пиксели*Кадры) : 0.276
Временной код первого кадра : 00:00:00:00
Оригинал временного кода : Group of pictures header
Размер потока : 760 Мбайт (74%)

Аудио
Идентификатор : 189 (0xBD)-128 (0x80)
Формат : AC-3
Формат/Информация : Audio Coding 3
Расширение режима : CM (complete main)
Параметр Endianness формата : Big
Режим смешивания : DVD-Video
Продолжительность : 1 ч. 15 м.
Вид битрейта : Постоянный
Битрейт : 448 Кбит/сек
Каналы : 6 каналов
Расположение каналов : Front: L C R, Side: L R, LFE
Частота : 48,0 КГц
Битовая глубина : 16 бит
Метод сжатия : С потерями
Размер потока : 243 Мбайт (24%)

Меню

Общее
Полное имя : C:\На раздаче\Русская классика 35\сторона 1\VIDEO_TS\VTS_01_2.VOB
Формат : MPEG-PS
Размер файла : 265 Мбайт
Режим общего битрейта : Переменный

Видео
Идентификатор : 224 (0xE0)
Формат : MPEG Video
Версия формата : Version 2
Профиль формата : Main@Main
Параметр BVOP формата : Да
Параметр матрицы формата : Выборочная
Параметр GOP формата : Variable
Вид битрейта : Переменный
Максимальный битрейт : 9348 Кбит/сек
Ширина : 352 пикселя
Высота : 576 пикселей
Соотношение сторон : 4:3
Частота кадров : 25,000 кадров/сек
Стандарт вещания : PAL
Цветовое пространство : YUV
Субдискретизация насыщенности : 4:2:0
Битовая глубина : 8 бит
Тип развёртки : Чересстрочная
Порядок развёртки : Верхнее поле первое
Метод сжатия : С потерями
Временной код первого кадра : 01:15:56:20
Оригинал временного кода : Group of pictures header

Аудио
Идентификатор : 189 (0xBD)-128 (0x80)
Формат : AC-3
Формат/Информация : Audio Coding 3
Расширение режима : CM (complete main)
Параметр Endianness формата : Big
Режим смешивания : DVD-Video
Вид битрейта : Постоянный
Битрейт : 448 Кбит/сек
Каналы : 6 каналов
Расположение каналов : Front: L C R, Side: L R, LFE
Частота : 48,0 КГц
Битовая глубина : 16 бит
Метод сжатия : С потерями
Задержка видео : -304 мс.

Меню

Общее
Полное имя : C:\На раздаче\Русская классика 35\сторона 1\VIDEO_TS\VTS_02_0.BUP
Формат : DVD Video
Профиль формата : Program
Размер файла : 52,0 Кбайт
Продолжительность : 1 ч. 22 м.
Режим общего битрейта : Переменный
Общий поток : 86 бит/сек

Видео
Идентификатор : 224 (0xE0)
Формат : MPEG Video
Версия формата : Version 2
Продолжительность : 1 ч. 22 м.
Вид битрейта : Переменный
Ширина : 352 пикселя
Высота : 576 пикселей
Соотношение сторон : 4:3
Частота кадров : 25,000 кадров/сек
Стандарт вещания : PAL
Метод сжатия : С потерями

Аудио
Идентификатор : 128 (0x80)
Формат : AC-3
Формат/Информация : Audio Coding 3
Продолжительность : 1 ч. 22 м.
Каналы : 2 канала
Частота : 48,0 КГц
Метод сжатия : С потерями
Язык : Russian

Меню
Продолжительность : 1 ч. 22 м.
00:00:00.000 : Chapter 1
00:07:30.760 : Chapter 2
00:14:06.240 : Chapter 3
00:24:33.480 : Chapter 4
00:33:07.400 : Chapter 5
00:38:24.640 : Chapter 6
00:48:47.600 : Chapter 7
00:55:19.440 : Chapter 8
01:03:41.680 : Chapter 9
01:12:45.000 : Chapter 10
01:22:19.920 : Chapter 11
List (Audio) : 0

Общее
Полное имя : C:\На раздаче\Русская классика 35\сторона 1\VIDEO_TS\VTS_02_0.IFO
Формат : DVD Video
Профиль формата : Program
Размер файла : 52,0 Кбайт
Продолжительность : 1 ч. 22 м.
Режим общего битрейта : Переменный
Общий поток : 86 бит/сек

Видео
Идентификатор : 224 (0xE0)
Формат : MPEG Video
Версия формата : Version 2
Продолжительность : 1 ч. 22 м.
Вид битрейта : Переменный
Ширина : 352 пикселя
Высота : 576 пикселей
Соотношение сторон : 4:3
Частота кадров : 25,000 кадров/сек
Стандарт вещания : PAL
Метод сжатия : С потерями

Аудио
Идентификатор : 128 (0x80)
Формат : AC-3
Формат/Информация : Audio Coding 3
Продолжительность : 1 ч. 22 м.
Каналы : 2 канала
Частота : 48,0 КГц
Метод сжатия : С потерями
Язык : Russian

Меню
Продолжительность : 1 ч. 22 м.
00:00:00.000 : Chapter 1
00:07:30.760 : Chapter 2
00:14:06.240 : Chapter 3
00:24:33.480 : Chapter 4
00:33:07.400 : Chapter 5
00:38:24.640 : Chapter 6
00:48:47.600 : Chapter 7
00:55:19.440 : Chapter 8
01:03:41.680 : Chapter 9
01:12:45.000 : Chapter 10
01:22:19.920 : Chapter 11
List (Audio) : 0

Общее
Полное имя : C:\На раздаче\Русская классика 35\сторона 1\VIDEO_TS\VTS_02_1.VOB
Формат : MPEG-PS
Размер файла : 1024 Мбайт
Продолжительность : 1 ч. 14 м.
Режим общего битрейта : Переменный
Общий поток : 1914 Кбит/сек

Видео
Идентификатор : 224 (0xE0)
Формат : MPEG Video
Версия формата : Version 2
Профиль формата : Main@Main
Параметр BVOP формата : Да
Параметр матрицы формата : Выборочная
Параметр GOP формата : Variable
Продолжительность : 1 ч. 14 м.
Вид битрейта : Переменный
Битрейт : 1684 Кбит/сек
Максимальный битрейт : 9600 Кбит/сек
Ширина : 352 пикселя
Высота : 576 пикселей
Соотношение сторон : 4:3
Частота кадров : 25,000 кадров/сек
Стандарт вещания : PAL
Цветовое пространство : YUV
Субдискретизация насыщенности : 4:2:0
Битовая глубина : 8 бит
Тип развёртки : Чересстрочная
Порядок развёртки : Верхнее поле первое
Метод сжатия : С потерями
Бит/(Пиксели*Кадры) : 0.332
Временной код первого кадра : 00:00:00:00
Оригинал временного кода : Group of pictures header
Размер потока : 901 Мбайт (88%)

Аудио
Идентификатор : 189 (0xBD)-128 (0x80)
Формат : AC-3
Формат/Информация : Audio Coding 3
Расширение режима : CM (complete main)
Параметр Endianness формата : Big
Режим смешивания : DVD-Video
Продолжительность : 1 ч. 14 м.
Вид битрейта : Постоянный
Битрейт : 192 Кбит/сек
Каналы : 2 канала
Расположение каналов : Front: L R
Частота : 48,0 КГц
Битовая глубина : 16 бит
Метод сжатия : С потерями
Размер потока : 103 Мбайт (10%)

Меню

Общее
Полное имя : C:\На раздаче\Русская классика 35\сторона 1\VIDEO_TS\VTS_02_2.VOB
Формат : MPEG-PS
Размер файла : 123 Мбайт
Режим общего битрейта : Переменный

Видео
Идентификатор : 224 (0xE0)
Формат : MPEG Video
Версия формата : Version 2
Профиль формата : Main@Main
Параметр BVOP формата : Да
Параметр матрицы формата : Выборочная
Параметр GOP формата : Variable
Вид битрейта : Переменный
Максимальный битрейт : 9600 Кбит/сек
Ширина : 352 пикселя
Высота : 576 пикселей
Соотношение сторон : 4:3
Частота кадров : 25,000 кадров/сек
Стандарт вещания : PAL
Цветовое пространство : YUV
Субдискретизация насыщенности : 4:2:0
Битовая глубина : 8 бит
Тип развёртки : Чересстрочная
Порядок развёртки : Верхнее поле первое
Метод сжатия : С потерями
Временной код первого кадра : 01:14:47:13
Оригинал временного кода : Group of pictures header

Аудио
Идентификатор : 189 (0xBD)-128 (0x80)
Формат : AC-3
Формат/Информация : Audio Coding 3
Расширение режима : CM (complete main)
Параметр Endianness формата : Big
Режим смешивания : DVD-Video
Вид битрейта : Постоянный
Битрейт : 192 Кбит/сек
Каналы : 2 канала
Расположение каналов : Front: L R
Частота : 48,0 КГц
Битовая глубина : 16 бит
Метод сжатия : С потерями
Задержка видео : -208 мс.

Меню

Общее
Полное имя : C:\На раздаче\Русская классика 35\сторона 1\VIDEO_TS\VTS_03_0.BUP
Формат : DVD Video
Профиль формата : Program
Размер файла : 46,0 Кбайт
Продолжительность : 1 ч. 6 м.
Режим общего битрейта : Переменный
Общий поток : 94 бит/сек

Видео
Идентификатор : 224 (0xE0)
Формат : MPEG Video
Версия формата : Version 2
Продолжительность : 1 ч. 6 м.
Вид битрейта : Переменный
Ширина : 352 пикселя
Высота : 576 пикселей
Соотношение сторон : 4:3
Частота кадров : 25,000 кадров/сек
Стандарт вещания : PAL
Метод сжатия : С потерями

Аудио
Идентификатор : 128 (0x80)
Формат : AC-3
Формат/Информация : Audio Coding 3
Продолжительность : 1 ч. 6 м.
Каналы : 2 канала
Частота : 48,0 КГц
Метод сжатия : С потерями
Язык : Russian

Меню
Продолжительность : 1 ч. 6 м.
00:00:00.000 : Chapter 1
00:07:07.680 : Chapter 2
00:15:19.240 : Chapter 3
00:24:44.480 : Chapter 4
00:31:02.960 : Chapter 5
00:40:56.240 : Chapter 6
00:47:11.080 : Chapter 7
00:54:06.680 : Chapter 8
00:59:34.040 : Chapter 9
01:06:56.400 : Chapter 10
List (Audio) : 0

Общее
Полное имя : C:\На раздаче\Русская классика 35\сторона 1\VIDEO_TS\VTS_03_0.IFO
Формат : DVD Video
Профиль формата : Program
Размер файла : 46,0 Кбайт
Продолжительность : 1 ч. 6 м.
Режим общего битрейта : Переменный
Общий поток : 94 бит/сек

Видео
Идентификатор : 224 (0xE0)
Формат : MPEG Video
Версия формата : Version 2
Продолжительность : 1 ч. 6 м.
Вид битрейта : Переменный
Ширина : 352 пикселя
Высота : 576 пикселей
Соотношение сторон : 4:3
Частота кадров : 25,000 кадров/сек
Стандарт вещания : PAL
Метод сжатия : С потерями

Аудио
Идентификатор : 128 (0x80)
Формат : AC-3
Формат/Информация : Audio Coding 3
Продолжительность : 1 ч. 6 м.
Каналы : 2 канала
Частота : 48,0 КГц
Метод сжатия : С потерями
Язык : Russian

Меню
Продолжительность : 1 ч. 6 м.
00:00:00.000 : Chapter 1
00:07:07.680 : Chapter 2
00:15:19.240 : Chapter 3
00:24:44.480 : Chapter 4
00:31:02.960 : Chapter 5
00:40:56.240 : Chapter 6
00:47:11.080 : Chapter 7
00:54:06.680 : Chapter 8
00:59:34.040 : Chapter 9
01:06:56.400 : Chapter 10
List (Audio) : 0

Общее
Полное имя : C:\На раздаче\Русская классика 35\сторона 1\VIDEO_TS\VTS_03_1.VOB
Формат : MPEG-PS
Размер файла : 929 Мбайт
Продолжительность : 647 мс.
Режим общего битрейта : Переменный
Общий поток : 12,0 Гбит/сек

Видео
Идентификатор : 224 (0xE0)
Формат : MPEG Video
Версия формата : Version 2
Профиль формата : Main@Main
Параметр BVOP формата : Да
Параметр матрицы формата : Выборочная
Параметр GOP формата : M=3, N=15
Продолжительность : 647 мс.
Вид битрейта : Переменный
Максимальный битрейт : 9600 Кбит/сек
Ширина : 352 пикселя
Высота : 576 пикселей
Соотношение сторон : 4:3
Частота кадров : 25,000 кадров/сек
Стандарт вещания : PAL
Цветовое пространство : YUV
Субдискретизация насыщенности : 4:2:0
Битовая глубина : 8 бит
Тип развёртки : Чересстрочная
Порядок развёртки : Верхнее поле первое
Метод сжатия : С потерями
Временной код первого кадра : 00:00:00:00
Оригинал временного кода : Group of pictures header

Аудио
Идентификатор : 189 (0xBD)-128 (0x80)
Формат : AC-3
Формат/Информация : Audio Coding 3
Расширение режима : CM (complete main)
Параметр Endianness формата : Big
Режим смешивания : DVD-Video
Продолжительность : 31 мс.
Вид битрейта : Постоянный
Битрейт : 192 Кбит/сек
Каналы : 2 канала
Расположение каналов : Front: L R
Частота : 48,0 КГц
Битовая глубина : 16 бит
Метод сжатия : С потерями
Размер потока : 744 байт (0%)

Меню

Общее
Полное имя : C:\На раздаче\Русская классика 35\сторона 1\VIDEO_TS\VTS_04_0.BUP
Формат : DVD Video
Профиль формата : Program
Размер файла : 46,0 Кбайт
Продолжительность : 1 ч. 15 м.
Режим общего битрейта : Переменный
Общий поток : 83 бит/сек

Видео
Идентификатор : 224 (0xE0)
Формат : MPEG Video
Версия формата : Version 2
Продолжительность : 1 ч. 15 м.
Вид битрейта : Переменный
Ширина : 352 пикселя
Высота : 576 пикселей
Соотношение сторон : 4:3
Частота кадров : 25,000 кадров/сек
Стандарт вещания : PAL
Метод сжатия : С потерями

Аудио
Идентификатор : 128 (0x80)
Формат : AC-3
Формат/Информация : Audio Coding 3
Продолжительность : 1 ч. 15 м.
Каналы : 2 канала
Частота : 48,0 КГц
Метод сжатия : С потерями
Язык : Russian

Меню
Продолжительность : 1 ч. 15 м.
00:00:00.000 : Chapter 1
00:07:13.040 : Chapter 2
00:14:18.960 : Chapter 3
00:22:48.160 : Chapter 4
00:29:21.600 : Chapter 5
00:39:15.440 : Chapter 6
00:47:52.640 : Chapter 7
00:56:07.360 : Chapter 8
01:03:18.320 : Chapter 9
01:10:21.960 : Chapter 10
01:15:35.960 : Chapter 11
List (Audio) : 0

Общее
Полное имя : C:\На раздаче\Русская классика 35\сторона 1\VIDEO_TS\VTS_04_0.IFO
Формат : DVD Video
Профиль формата : Program
Размер файла : 46,0 Кбайт
Продолжительность : 1 ч. 15 м.
Режим общего битрейта : Переменный
Общий поток : 83 бит/сек

Видео
Идентификатор : 224 (0xE0)
Формат : MPEG Video
Версия формата : Version 2
Продолжительность : 1 ч. 15 м.
Вид битрейта : Переменный
Ширина : 352 пикселя
Высота : 576 пикселей
Соотношение сторон : 4:3
Частота кадров : 25,000 кадров/сек
Стандарт вещания : PAL
Метод сжатия : С потерями

Аудио
Идентификатор : 128 (0x80)
Формат : AC-3
Формат/Информация : Audio Coding 3
Продолжительность : 1 ч. 15 м.
Каналы : 2 канала
Частота : 48,0 КГц
Метод сжатия : С потерями
Язык : Russian

Меню
Продолжительность : 1 ч. 15 м.
00:00:00.000 : Chapter 1
00:07:13.040 : Chapter 2
00:14:18.960 : Chapter 3
00:22:48.160 : Chapter 4
00:29:21.600 : Chapter 5
00:39:15.440 : Chapter 6
00:47:52.640 : Chapter 7
00:56:07.360 : Chapter 8
01:03:18.320 : Chapter 9
01:10:21.960 : Chapter 10
01:15:35.960 : Chapter 11
List (Audio) : 0

Общее
Полное имя : C:\На раздаче\Русская классика 35\сторона 1\VIDEO_TS\VTS_04_1.VOB
Формат : MPEG-PS
Размер файла : 1024 Мбайт
Продолжительность : 1 ч. 13 м.
Режим общего битрейта : Переменный
Общий поток : 1942 Кбит/сек

Видео
Идентификатор : 224 (0xE0)
Формат : MPEG Video
Версия формата : Version 2
Профиль формата : Main@Main
Параметр BVOP формата : Да
Параметр матрицы формата : Выборочная
Параметр GOP формата : M=3, N=15
Продолжительность : 1 ч. 13 м.
Вид битрейта : Переменный
Битрейт : 1679 Кбит/сек
Максимальный битрейт : 9568 Кбит/сек
Ширина : 352 пикселя
Высота : 576 пикселей
Соотношение сторон : 4:3
Частота кадров : 25,000 кадров/сек
Стандарт вещания : PAL
Цветовое пространство : YUV
Субдискретизация насыщенности : 4:2:0
Битовая глубина : 8 бит
Тип развёртки : Чересстрочная
Порядок развёртки : Верхнее поле первое
Метод сжатия : С потерями
Бит/(Пиксели*Кадры) : 0.331
Временной код первого кадра : 00:00:00:00
Оригинал временного кода : Group of pictures header
Размер потока : 885 Мбайт (86%)

Аудио
Идентификатор : 189 (0xBD)-128 (0x80)
Формат : AC-3
Формат/Информация : Audio Coding 3
Расширение режима : CM (complete main)
Параметр Endianness формата : Big
Режим смешивания : DVD-Video
Продолжительность : 1 ч. 13 м.
Вид битрейта : Постоянный
Битрейт : 224 Кбит/сек
Каналы : 2 канала
Расположение каналов : Front: L R
Частота : 48,0 КГц
Битовая глубина : 16 бит
Метод сжатия : С потерями
Размер потока : 118 Мбайт (12%)

Меню

Общее
Полное имя : C:\На раздаче\Русская классика 35\сторона 1\VIDEO_TS\VTS_04_2.VOB
Формат : MPEG-PS
Размер файла : 31,3 Мбайт
Режим общего битрейта : Переменный

Видео
Идентификатор : 224 (0xE0)
Формат : MPEG Video
Версия формата : Version 2
Профиль формата : Main@Main
Параметр BVOP формата : Да
Параметр матрицы формата : Выборочная
Параметр GOP формата : M=3, N=15
Вид битрейта : Переменный
Максимальный битрейт : 9568 Кбит/сек
Ширина : 352 пикселя
Высота : 576 пикселей
Соотношение сторон : 4:3
Частота кадров : 25,000 кадров/сек
Стандарт вещания : PAL
Цветовое пространство : YUV
Субдискретизация насыщенности : 4:2:0
Битовая глубина : 8 бит
Тип развёртки : Чересстрочная
Порядок развёртки : Верхнее поле первое
Метод сжатия : С потерями
Временной код первого кадра : 01:13:43:14
Оригинал временного кода : Group of pictures header

Аудио
Идентификатор : 189 (0xBD)-128 (0x80)
Формат : AC-3
Формат/Информация : Audio Coding 3
Расширение режима : CM (complete main)
Параметр Endianness формата : Big
Режим смешивания : DVD-Video
Вид битрейта : Постоянный
Битрейт : 224 Кбит/сек
Каналы : 2 канала
Расположение каналов : Front: L R
Частота : 48,0 КГц
Битовая глубина : 16 бит
Метод сжатия : С потерями
Задержка видео : -216 мс.

Меню
Download

Войдите для скачивания торрент-файла

Как скачивать  ·   Правила трекера

[Профиль]  [ЛС] 

stepan-frunze

Стаж: 7 лет 9 месяцев

Сообщений: 2565

Russia

post 13-Фев-2014 23:46 (спустя 3 месяца 18 дней)

[Цитировать] 

MediaInfo второго диска
Общее
Полное имя : C:\На раздаче\Русская классика 35\сторона 2\VIDEO_TS\VIDEO_TS.BUP
Формат : DVD Video
Профиль формата : Menu
Размер файла : 14,0 Кбайт
Режим общего битрейта : Переменный

Видео
Идентификатор : 224 (0xE0)
Формат : MPEG Video
Версия формата : Version 2
Вид битрейта : Переменный
Ширина : 720 пикселей
Высота : 480 пикселей
Соотношение сторон : 4:3
Частота кадров : 29,970 кадров/сек
Стандарт вещания : NTSC
Метод сжатия : С потерями

Аудио
Формат : AC-3
Формат/Информация : Audio Coding 3
Каналы : 2 канала
Частота : 48,0 КГц
Метод сжатия : С потерями

Текст
Формат : RLE
Формат/Информация : Run-length encoding
Битовая глубина : 2 бит

Общее
Полное имя : C:\На раздаче\Русская классика 35\сторона 2\VIDEO_TS\VIDEO_TS.IFO
Формат : DVD Video
Профиль формата : Menu
Размер файла : 14,0 Кбайт
Режим общего битрейта : Переменный

Видео
Идентификатор : 224 (0xE0)
Формат : MPEG Video
Версия формата : Version 2
Вид битрейта : Переменный
Ширина : 720 пикселей
Высота : 480 пикселей
Соотношение сторон : 4:3
Частота кадров : 29,970 кадров/сек
Стандарт вещания : NTSC
Метод сжатия : С потерями

Аудио
Формат : AC-3
Формат/Информация : Audio Coding 3
Каналы : 2 канала
Частота : 48,0 КГц
Метод сжатия : С потерями

Текст
Формат : RLE
Формат/Информация : Run-length encoding
Битовая глубина : 2 бит

Общее
Полное имя : C:\На раздаче\Русская классика 35\сторона 2\VIDEO_TS\VIDEO_TS.VOB
Формат : MPEG-PS
Размер файла : 7,36 Мбайт
Продолжительность : 566 мс.
Общий поток : 109 Мбит/сек

Видео
Идентификатор : 224 (0xE0)
Формат : MPEG Video
Версия формата : Version 2
Профиль формата : Main@Main
Параметр BVOP формата : Да
Параметр матрицы формата : Выборочная
Параметр GOP формата : Variable
Продолжительность : 566 мс.
Ширина : 720 пикселей
Высота : 480 пикселей
Соотношение сторон : 4:3
Частота кадров : 29,970 кадров/сек
Стандарт вещания : NTSC
Цветовое пространство : YUV
Субдискретизация насыщенности : 4:2:0
Битовая глубина : 8 бит
Метод сжатия : С потерями
Основные цвета : BT.601 PAL
Характеристики трансфера : BT.470 System B, BT.470 System G
Коэффициенты матрицы : BT.601

Аудио
Идентификатор : 189 (0xBD)-128 (0x80)
Формат : AC-3
Формат/Информация : Audio Coding 3
Расширение режима : CM (complete main)
Параметр Endianness формата : Big
Режим смешивания : DVD-Video
Продолжительность : 38 мс.
Вид битрейта : Постоянный
Битрейт : 256 Кбит/сек
Каналы : 2 канала
Расположение каналов : Front: L R
Частота : 48,0 КГц
Битовая глубина : 16 бит
Метод сжатия : С потерями
Размер потока : 1,19 Кбайт (0%)

Текст
Идентификатор : 189 (0xBD)-32 (0x20)
Формат : RLE
Формат/Информация : Run-length encoding
Режим смешивания : DVD-Video

Меню

Общее
Полное имя : C:\На раздаче\Русская классика 35\сторона 2\VIDEO_TS\VTS_01_0.BUP
Формат : DVD Video
Профиль формата : Program
Размер файла : 56,0 Кбайт
Продолжительность : 1 ч. 31 м.
Режим общего битрейта : Переменный
Общий поток : 83 бит/сек

Видео
Идентификатор : 224 (0xE0)
Формат : MPEG Video
Версия формата : Version 2
Продолжительность : 1 ч. 31 м.
Вид битрейта : Переменный
Ширина : 352 пикселя
Высота : 480 пикселей
Соотношение сторон : 4:3
Частота кадров : 29,970 кадров/сек
Стандарт вещания : NTSC
Метод сжатия : С потерями

Аудио
Идентификатор : 128 (0x80)
Формат : AC-3
Формат/Информация : Audio Coding 3
Продолжительность : 1 ч. 31 м.
Каналы : 6 каналов
Частота : 48,0 КГц
Метод сжатия : С потерями
Язык : English

Меню
Продолжительность : 1 ч. 31 м.
00:00:00.000 : Chapter 1
00:08:02.533 : Chapter 2
00:15:18.633 : Chapter 3
00:23:59.033 : Chapter 4
00:33:59.799 : Chapter 5
00:39:03.999 : Chapter 6
00:50:22.132 : Chapter 7
00:56:43.798 : Chapter 8
01:01:05.698 : Chapter 9
01:08:10.964 : Chapter 10
01:20:46.230 : Chapter 11
01:31:40.496 : Chapter 12
List (Audio) : 0

Общее
Полное имя : C:\На раздаче\Русская классика 35\сторона 2\VIDEO_TS\VTS_01_0.IFO
Формат : DVD Video
Профиль формата : Program
Размер файла : 56,0 Кбайт
Продолжительность : 1 ч. 31 м.
Режим общего битрейта : Переменный
Общий поток : 83 бит/сек

Видео
Идентификатор : 224 (0xE0)
Формат : MPEG Video
Версия формата : Version 2
Продолжительность : 1 ч. 31 м.
Вид битрейта : Переменный
Ширина : 352 пикселя
Высота : 480 пикселей
Соотношение сторон : 4:3
Частота кадров : 29,970 кадров/сек
Стандарт вещания : NTSC
Метод сжатия : С потерями

Аудио
Идентификатор : 128 (0x80)
Формат : AC-3
Формат/Информация : Audio Coding 3
Продолжительность : 1 ч. 31 м.
Каналы : 6 каналов
Частота : 48,0 КГц
Метод сжатия : С потерями
Язык : English

Меню
Продолжительность : 1 ч. 31 м.
00:00:00.000 : Chapter 1
00:08:02.533 : Chapter 2
00:15:18.633 : Chapter 3
00:23:59.033 : Chapter 4
00:33:59.799 : Chapter 5
00:39:03.999 : Chapter 6
00:50:22.132 : Chapter 7
00:56:43.798 : Chapter 8
01:01:05.698 : Chapter 9
01:08:10.964 : Chapter 10
01:20:46.230 : Chapter 11
01:31:40.496 : Chapter 12
List (Audio) : 0

Общее
Полное имя : C:\На раздаче\Русская классика 35\сторона 2\VIDEO_TS\VTS_01_1.VOB
Формат : MPEG-PS
Размер файла : 1024 Мбайт
Продолжительность : 1 ч. 28 м.
Режим общего битрейта : Переменный
Общий поток : 1620 Кбит/сек

Видео
Идентификатор : 224 (0xE0)
Формат : MPEG Video
Версия формата : Version 2
Профиль формата : Main@Main
Параметр BVOP формата : Да
Параметр матрицы формата : Выборочная
Параметр GOP формата : M=3, N=14
Продолжительность : 1 ч. 28 м.
Вид битрейта : Переменный
Битрейт : 1140 Кбит/сек
Максимальный битрейт : 9348 Кбит/сек
Ширина : 352 пикселя
Высота : 480 пикселей
Соотношение сторон : 4:3
Частота кадров : 23,976 кадра/сек
Стандарт вещания : NTSC
Цветовое пространство : YUV
Субдискретизация насыщенности : 4:2:0
Битовая глубина : 8 бит
Тип развёртки : Прогрессивная
Порядок развёртки : 2:3 Pulldown
Метод сжатия : С потерями
Бит/(Пиксели*Кадры) : 0.281
Временной код первого кадра : 00:00:00:00
Оригинал временного кода : Group of pictures header
Размер потока : 720 Мбайт (70%)

Аудио
Идентификатор : 189 (0xBD)-128 (0x80)
Формат : AC-3
Формат/Информация : Audio Coding 3
Расширение режима : CM (complete main)
Параметр Endianness формата : Big
Режим смешивания : DVD-Video
Продолжительность : 1 ч. 28 м.
Вид битрейта : Постоянный
Битрейт : 448 Кбит/сек
Каналы : 6 каналов
Расположение каналов : Front: L C R, Side: L R, LFE
Частота : 48,0 КГц
Битовая глубина : 16 бит
Метод сжатия : С потерями
Размер потока : 283 Мбайт (28%)

Меню

Общее
Полное имя : C:\На раздаче\Русская классика 35\сторона 2\VIDEO_TS\VTS_01_2.VOB
Формат : MPEG-PS
Размер файла : 32,9 Мбайт
Режим общего битрейта : Переменный

Видео
Идентификатор : 224 (0xE0)
Формат : MPEG Video
Версия формата : Version 2
Профиль формата : Main@Main
Параметр BVOP формата : Да
Параметр матрицы формата : Выборочная
Параметр GOP формата : M=3, N=14
Вид битрейта : Переменный
Максимальный битрейт : 9348 Кбит/сек
Ширина : 352 пикселя
Высота : 480 пикселей
Соотношение сторон : 4:3
Частота кадров : 23,976 кадра/сек
Стандарт вещания : NTSC
Цветовое пространство : YUV
Субдискретизация насыщенности : 4:2:0
Битовая глубина : 8 бит
Тип развёртки : Прогрессивная
Порядок развёртки : 2:3 Pulldown
Метод сжатия : С потерями
Временной код первого кадра : 01:28:16:23
Оригинал временного кода : Group of pictures header

Аудио
Идентификатор : 189 (0xBD)-128 (0x80)
Формат : AC-3
Формат/Информация : Audio Coding 3
Расширение режима : CM (complete main)
Параметр Endianness формата : Big
Режим смешивания : DVD-Video
Вид битрейта : Постоянный
Битрейт : 448 Кбит/сек
Каналы : 6 каналов
Расположение каналов : Front: L C R, Side: L R, LFE
Частота : 48,0 КГц
Битовая глубина : 16 бит
Метод сжатия : С потерями
Задержка видео : -276 мс.

Меню

Общее
Полное имя : C:\На раздаче\Русская классика 35\сторона 2\VIDEO_TS\VTS_02_0.BUP
Формат : DVD Video
Профиль формата : Program
Размер файла : 52,0 Кбайт
Продолжительность : 1 ч. 23 м.
Режим общего битрейта : Переменный
Общий поток : 85 бит/сек

Видео
Идентификатор : 224 (0xE0)
Формат : MPEG Video
Версия формата : Version 2
Продолжительность : 1 ч. 23 м.
Вид битрейта : Переменный
Ширина : 352 пикселя
Высота : 480 пикселей
Соотношение сторон : 4:3
Частота кадров : 29,970 кадров/сек
Стандарт вещания : NTSC
Метод сжатия : С потерями

Аудио
Идентификатор : 128 (0x80)
Формат : AC-3
Формат/Информация : Audio Coding 3
Продолжительность : 1 ч. 23 м.
Каналы : 2 канала
Частота : 48,0 КГц
Метод сжатия : С потерями
Язык : Russian

Меню
Продолжительность : 1 ч. 23 м.
00:00:00.000 : Chapter 1
00:08:20.333 : Chapter 2
00:14:36.999 : Chapter 3
00:25:15.432 : Chapter 4
00:30:38.998 : Chapter 5
00:38:05.331 : Chapter 6
00:45:38.297 : Chapter 7
00:54:46.763 : Chapter 8
01:00:38.963 : Chapter 9
01:08:31.196 : Chapter 10
01:17:09.329 : Chapter 11
01:23:14.595 : Chapter 12
List (Audio) : 0

Общее
Полное имя : C:\На раздаче\Русская классика 35\сторона 2\VIDEO_TS\VTS_02_0.IFO
Формат : DVD Video
Профиль формата : Program
Размер файла : 52,0 Кбайт
Продолжительность : 1 ч. 23 м.
Режим общего битрейта : Переменный
Общий поток : 85 бит/сек

Видео
Идентификатор : 224 (0xE0)
Формат : MPEG Video
Версия формата : Version 2
Продолжительность : 1 ч. 23 м.
Вид битрейта : Переменный
Ширина : 352 пикселя
Высота : 480 пикселей
Соотношение сторон : 4:3
Частота кадров : 29,970 кадров/сек
Стандарт вещания : NTSC
Метод сжатия : С потерями

Аудио
Идентификатор : 128 (0x80)
Формат : AC-3
Формат/Информация : Audio Coding 3
Продолжительность : 1 ч. 23 м.
Каналы : 2 канала
Частота : 48,0 КГц
Метод сжатия : С потерями
Язык : Russian

Меню
Продолжительность : 1 ч. 23 м.
00:00:00.000 : Chapter 1
00:08:20.333 : Chapter 2
00:14:36.999 : Chapter 3
00:25:15.432 : Chapter 4
00:30:38.998 : Chapter 5
00:38:05.331 : Chapter 6
00:45:38.297 : Chapter 7
00:54:46.763 : Chapter 8
01:00:38.963 : Chapter 9
01:08:31.196 : Chapter 10
01:17:09.329 : Chapter 11
01:23:14.595 : Chapter 12
List (Audio) : 0

Общее
Полное имя : C:\На раздаче\Русская классика 35\сторона 2\VIDEO_TS\VTS_02_1.VOB
Формат : MPEG-PS
Размер файла : 959 Мбайт
Продолжительность : 581 мс.
Режим общего битрейта : Переменный
Общий поток : 13,8 Гбит/сек

Видео
Идентификатор : 224 (0xE0)
Формат : MPEG Video
Версия формата : Version 2
Профиль формата : Main@Main
Параметр BVOP формата : Да
Параметр матрицы формата : Выборочная
Параметр GOP формата : Variable
Продолжительность : 581 мс.
Вид битрейта : Переменный
Максимальный битрейт : 9600 Кбит/сек
Ширина : 352 пикселя
Высота : 480 пикселей
Соотношение сторон : 4:3
Частота кадров : 29,970 кадров/сек
Стандарт вещания : NTSC
Цветовое пространство : YUV
Субдискретизация насыщенности : 4:2:0
Битовая глубина : 8 бит
Тип развёртки : Чересстрочная
Порядок развёртки : Нижнее поле первое
Метод сжатия : С потерями
Временной код первого кадра : 00:00:00:00
Оригинал временного кода : Group of pictures header

Аудио
Идентификатор : 189 (0xBD)-128 (0x80)
Формат : AC-3
Формат/Информация : Audio Coding 3
Расширение режима : CM (complete main)
Параметр Endianness формата : Big
Режим смешивания : DVD-Video
Продолжительность : 70 мс.
Вид битрейта : Постоянный
Битрейт : 192 Кбит/сек
Каналы : 2 канала
Расположение каналов : Front: L R
Частота : 48,0 КГц
Битовая глубина : 16 бит
Метод сжатия : С потерями
Размер потока : 1,64 Кбайт (0%)

Меню

Общее
Полное имя : C:\На раздаче\Русская классика 35\сторона 2\VIDEO_TS\VTS_03_0.BUP
Формат : DVD Video
Профиль формата : Program
Размер файла : 68,0 Кбайт
Продолжительность : 2 ч. 6 м.
Режим общего битрейта : Переменный
Общий поток : 73 бит/сек

Видео
Идентификатор : 224 (0xE0)
Формат : MPEG Video
Версия формата : Version 2
Продолжительность : 2 ч. 6 м.
Вид битрейта : Переменный
Ширина : 352 пикселя
Высота : 480 пикселей
Соотношение сторон : 4:3
Частота кадров : 29,970 кадров/сек
Стандарт вещания : NTSC
Метод сжатия : С потерями

Аудио
Идентификатор : 128 (0x80)
Формат : AC-3
Формат/Информация : Audio Coding 3
Продолжительность : 2 ч. 6 м.
Каналы : 2 канала
Частота : 48,0 КГц
Метод сжатия : С потерями
Язык : Russian

Меню
Продолжительность : 2 ч. 6 м.
00:00:00.000 : Chapter 1
00:10:23.566 : Chapter 2
00:20:55.866 : Chapter 3
00:31:47.166 : Chapter 4
00:40:24.566 : Chapter 5
00:51:03.432 : Chapter 6
01:03:32.898 : Chapter 7
01:14:16.498 : Chapter 8
01:24:01.264 : Chapter 9
01:32:32.330 : Chapter 10
01:42:09.530 : Chapter 11
01:51:46.663 : Chapter 12
02:06:41.263 : Chapter 13
List (Audio) : 0

Общее
Полное имя : C:\На раздаче\Русская классика 35\сторона 2\VIDEO_TS\VTS_03_0.IFO
Формат : DVD Video
Профиль формата : Program
Размер файла : 68,0 Кбайт
Продолжительность : 2 ч. 6 м.
Режим общего битрейта : Переменный
Общий поток : 73 бит/сек

Видео
Идентификатор : 224 (0xE0)
Формат : MPEG Video
Версия формата : Version 2
Продолжительность : 2 ч. 6 м.
Вид битрейта : Переменный
Ширина : 352 пикселя
Высота : 480 пикселей
Соотношение сторон : 4:3
Частота кадров : 29,970 кадров/сек
Стандарт вещания : NTSC
Метод сжатия : С потерями

Аудио
Идентификатор : 128 (0x80)
Формат : AC-3
Формат/Информация : Audio Coding 3
Продолжительность : 2 ч. 6 м.
Каналы : 2 канала
Частота : 48,0 КГц
Метод сжатия : С потерями
Язык : Russian

Меню
Продолжительность : 2 ч. 6 м.
00:00:00.000 : Chapter 1
00:10:23.566 : Chapter 2
00:20:55.866 : Chapter 3
00:31:47.166 : Chapter 4
00:40:24.566 : Chapter 5
00:51:03.432 : Chapter 6
01:03:32.898 : Chapter 7
01:14:16.498 : Chapter 8
01:24:01.264 : Chapter 9
01:32:32.330 : Chapter 10
01:42:09.530 : Chapter 11
01:51:46.663 : Chapter 12
02:06:41.263 : Chapter 13
List (Audio) : 0

Общее
Полное имя : C:\На раздаче\Русская классика 35\сторона 2\VIDEO_TS\VTS_03_1.VOB
Формат : MPEG-PS
Размер файла : 1024 Мбайт
Продолжительность : 24 м.
Режим общего битрейта : Переменный
Общий поток : 5778 Кбит/сек

Видео
Идентификатор : 224 (0xE0)
Формат : MPEG Video
Версия формата : Version 2
Профиль формата : Main@Main
Параметр BVOP формата : Да
Параметр матрицы формата : Выборочная
Параметр GOP формата : Variable
Продолжительность : 24 м.
Вид битрейта : Переменный
Битрейт : 5439 Кбит/сек
Максимальный битрейт : 9568 Кбит/сек
Ширина : 352 пикселя
Высота : 480 пикселей
Соотношение сторон : 4:3
Частота кадров : 29,970 кадров/сек
Стандарт вещания : NTSC
Цветовое пространство : YUV
Субдискретизация насыщенности : 4:2:0
Битовая глубина : 8 бит
Тип развёртки : Чересстрочная
Порядок развёртки : Верхнее поле первое
Метод сжатия : С потерями
Бит/(Пиксели*Кадры) : 1.074
Временной код первого кадра : 00:00:00:00
Оригинал временного кода : Group of pictures header
Размер потока : 964 Мбайт (94%)

Аудио
Идентификатор : 189 (0xBD)-128 (0x80)
Формат : AC-3
Формат/Информация : Audio Coding 3
Расширение режима : CM (complete main)
Параметр Endianness формата : Big
Режим смешивания : DVD-Video
Продолжительность : 24 м.
Вид битрейта : Постоянный
Битрейт : 224 Кбит/сек
Каналы : 2 канала
Расположение каналов : Front: L R
Частота : 48,0 КГц
Битовая глубина : 16 бит
Метод сжатия : С потерями
Размер потока : 39,7 Мбайт (4%)

Меню

Общее
Полное имя : C:\На раздаче\Русская классика 35\сторона 2\VIDEO_TS\VTS_03_2.VOB
Формат : MPEG-PS
Размер файла : 435 Мбайт
Режим общего битрейта : Переменный

Видео
Идентификатор : 224 (0xE0)
Формат : MPEG Video
Версия формата : Version 2
Профиль формата : Main@Main
Параметр BVOP формата : Да
Параметр матрицы формата : Выборочная
Параметр GOP формата : Variable
Вид битрейта : Переменный
Максимальный битрейт : 9568 Кбит/сек
Ширина : 352 пикселя
Высота : 480 пикселей
Соотношение сторон : 4:3
Частота кадров : 29,970 кадров/сек
Стандарт вещания : NTSC
Цветовое пространство : YUV
Субдискретизация насыщенности : 4:2:0
Битовая глубина : 8 бит
Тип развёртки : Чересстрочная
Порядок развёртки : Верхнее поле первое
Метод сжатия : С потерями
Временной код первого кадра : 00:24:45:01
Оригинал временного кода : Group of pictures header

Аудио
Идентификатор : 189 (0xBD)-128 (0x80)
Формат : AC-3
Формат/Информация : Audio Coding 3
Расширение режима : CM (complete main)
Параметр Endianness формата : Big
Режим смешивания : DVD-Video
Вид битрейта : Постоянный
Битрейт : 224 Кбит/сек
Каналы : 2 канала
Расположение каналов : Front: L R
Частота : 48,0 КГц
Битовая глубина : 16 бит
Метод сжатия : С потерями
Задержка видео : -162 мс.

Меню

Общее
Полное имя : C:\На раздаче\Русская классика 35\сторона 2\VIDEO_TS\VTS_04_0.BUP
Формат : DVD Video
Профиль формата : Program
Размер файла : 52,0 Кбайт
Продолжительность : 1 ч. 23 м.
Режим общего битрейта : Переменный
Общий поток : 86 бит/сек

Видео
Идентификатор : 224 (0xE0)
Формат : MPEG Video
Версия формата : Version 2
Продолжительность : 1 ч. 23 м.
Вид битрейта : Переменный
Ширина : 352 пикселя
Высота : 480 пикселей
Соотношение сторон : 4:3
Частота кадров : 29,970 кадров/сек
Стандарт вещания : NTSC
Метод сжатия : С потерями

Аудио
Идентификатор : 128 (0x80)
Формат : AC-3
Формат/Информация : Audio Coding 3
Продолжительность : 1 ч. 23 м.
Каналы : 2 канала
Частота : 48,0 КГц
Метод сжатия : С потерями
Язык : Russian

Меню
Продолжительность : 1 ч. 23 м.
00:00:00.000 : Chapter 1
00:07:39.633 : Chapter 2
00:14:02.533 : Chapter 3
00:21:56.199 : Chapter 4
00:32:12.332 : Chapter 5
00:40:41.332 : Chapter 6
00:48:34.998 : Chapter 7
00:54:18.231 : Chapter 8
01:05:06.797 : Chapter 9
01:12:32.830 : Chapter 10
01:23:00.063 : Chapter 11
List (Audio) : 0

Общее
Полное имя : C:\На раздаче\Русская классика 35\сторона 2\VIDEO_TS\VTS_04_0.IFO
Формат : DVD Video
Профиль формата : Program
Размер файла : 52,0 Кбайт
Продолжительность : 1 ч. 23 м.
Режим общего битрейта : Переменный
Общий поток : 86 бит/сек

Видео
Идентификатор : 224 (0xE0)
Формат : MPEG Video
Версия формата : Version 2
Продолжительность : 1 ч. 23 м.
Вид битрейта : Переменный
Ширина : 352 пикселя
Высота : 480 пикселей
Соотношение сторон : 4:3
Частота кадров : 29,970 кадров/сек
Стандарт вещания : NTSC
Метод сжатия : С потерями

Аудио
Идентификатор : 128 (0x80)
Формат : AC-3
Формат/Информация : Audio Coding 3
Продолжительность : 1 ч. 23 м.
Каналы : 2 канала
Частота : 48,0 КГц
Метод сжатия : С потерями
Язык : Russian

Меню
Продолжительность : 1 ч. 23 м.
00:00:00.000 : Chapter 1
00:07:39.633 : Chapter 2
00:14:02.533 : Chapter 3
00:21:56.199 : Chapter 4
00:32:12.332 : Chapter 5
00:40:41.332 : Chapter 6
00:48:34.998 : Chapter 7
00:54:18.231 : Chapter 8
01:05:06.797 : Chapter 9
01:12:32.830 : Chapter 10
01:23:00.063 : Chapter 11
List (Audio) : 0

Общее
Полное имя : C:\На раздаче\Русская классика 35\сторона 2\VIDEO_TS\VTS_04_1.VOB
Формат : MPEG-PS
Размер файла : 958 Мбайт
Продолжительность : 631 мс.
Режим общего битрейта : Переменный
Общий поток : 12,7 Гбит/сек

Видео
Идентификатор : 224 (0xE0)
Формат : MPEG Video
Версия формата : Version 2
Профиль формата : Main@Main
Параметр BVOP формата : Да
Параметр матрицы формата : Выборочная
Параметр GOP формата : M=3, N=14
Продолжительность : 631 мс.
Вид битрейта : Переменный
Максимальный битрейт : 9668 Кбит/сек
Ширина : 352 пикселя
Высота : 480 пикселей
Соотношение сторон : 4:3
Частота кадров : 23,976 кадра/сек
Стандарт вещания : NTSC
Цветовое пространство : YUV
Субдискретизация насыщенности : 4:2:0
Битовая глубина : 8 бит
Тип развёртки : Прогрессивная
Порядок развёртки : 2:3 Pulldown
Метод сжатия : С потерями
Временной код первого кадра : 00:00:00:00
Оригинал временного кода : Group of pictures header

Аудио
Идентификатор : 189 (0xBD)-128 (0x80)
Формат : AC-3
Формат/Информация : Audio Coding 3
Расширение режима : CM (complete main)
Параметр Endianness формата : Big
Режим смешивания : DVD-Video
Продолжительность : 108 мс.
Вид битрейта : Постоянный
Битрейт : 128 Кбит/сек
Каналы : 2 канала
Расположение каналов : Front: L R
Частота : 48,0 КГц
Битовая глубина : 16 бит
Метод сжатия : С потерями
Размер потока : 1,69 Кбайт (0%)

Меню
DVDinfo первого диска
Title: сторона 1
Size: 4.32 Gb ( 4 531 502,00 KBytes ) - DVD-5
Enabled regions: 1, 2, 3, 4, 5, 6, 7, 8

VTS_01 :
Play Length: 01:32:51
Video: PAL 4:3 (352x576) VBR
Audio:
Russian (Dolby AC3, 6 ch)

VTS_02 :
Play Length: 01:22:20
Video: PAL 4:3 (352x576) VBR
Audio:
Russian (Dolby AC3, 2 ch)

VTS_03 :
Play Length: 01:06:57
Video: PAL 4:3 (352x576) VBR
Audio:
Russian (Dolby AC3, 2 ch)

VTS_04 :
Play Length: 01:15:36
Video: PAL 4:3 (352x576) VBR
Audio:
Russian (Dolby AC3, 2 ch)

* Menus Information *

VIDEO_TS Menu
Video:
PAL 4:3 (720x576) VBR
Audio:
Not specified (Dolby AC3, 2 ch)
English Language Unit :
Title Menu

VTS_01 Menu
Video:
NTSC 4:3 (720x480) VBR
Auto Pan&Scan, Auto Letterboxed
English Language Unit :
Root Menu

VTS_02 Menu
Video:
NTSC 4:3 (720x480) VBR
Auto Pan&Scan, Auto Letterboxed
English Language Unit :
Root Menu

VTS_03 Menu
Video:
NTSC 4:3 (720x480) VBR
Auto Pan&Scan, Auto Letterboxed
English Language Unit :
Root Menu

VTS_04 Menu
Video:
NTSC 4:3 (720x480) VBR
Auto Pan&Scan, Auto Letterboxed
English Language Unit :
Root Menu
DVDinfo второго диска
Title: сторона 2
Size: 4.34 Gb ( 4 546 236,00 KBytes ) - DVD-5
Enabled regions: 1, 2, 3, 4, 5, 6, 7, 8

VTS_01 :
Play Length: 01:31:41
Video: NTSC 4:3 (352x480) VBR
Audio:
English (Dolby AC3, 6 ch)

VTS_02 :
Play Length: 01:23:15
Video: NTSC 4:3 (352x480) VBR
Audio:
Russian (Dolby AC3, 2 ch)

VTS_03 :
Play Length: 02:06:41
Video: NTSC 4:3 (352x480) VBR
Audio:
Russian (Dolby AC3, 2 ch)

VTS_04 :
Play Length: 01:23:00
Video: NTSC 4:3 (352x480) VBR
Audio:
Russian (Dolby AC3, 2 ch)

* Menus Information *

VIDEO_TS Menu
Video:
NTSC 4:3 (720x480) VBR
Audio:
Not specified (Dolby AC3, 2 ch)
English Language Unit :
Title Menu

VTS_01 Menu
Video:
NTSC 4:3 (720x480) VBR
Auto Pan&Scan, Auto Letterboxed
English Language Unit :
Root Menu

VTS_02 Menu
Video:
NTSC 4:3 (720x480) VBR
Auto Pan&Scan, Auto Letterboxed
English Language Unit :
Root Menu

VTS_03 Menu
Video:
NTSC 4:3 (720x480) VBR
Auto Pan&Scan, Auto Letterboxed
English Language Unit :
Root Menu

VTS_04 Menu
Video:
NTSC 4:3 (720x480) VBR
Auto Pan&Scan, Auto Letterboxed
English Language Unit :
Root Menu
picpic


Последний раз редактировалось: stepan-frunze (2014-10-26 09:25), всего редактировалось 2 раз(а)
[Профиль]  [ЛС] 

belorus

Стаж: 5 лет 10 месяцев

Сообщений: 2

post 14-Фев-2014 10:58 (спустя 11 часов)

[Цитировать] 

Фильм Три орешка для Золушки не русская классика
[Профиль]  [ЛС] 

stepan-frunze

Стаж: 7 лет 9 месяцев

Сообщений: 2565

Russia

post 21-Апр-2014 00:51 (спустя 2 месяца 6 дней)

[Цитировать] 

pic
[Профиль]  [ЛС] 

Олег Торопыгин

Стаж: 3 года 7 месяцев

Сообщений: 18

Russia

post 22-Фев-2016 16:49 (спустя 1 год 10 месяцев)

[Цитировать] 

Благодарю!
[Профиль]  [ЛС] 
Показать сообщения:    
Ответить на тему

Текущее время: 08-Дек 18:12

Часовой пояс: GMT + 4



Вы не можете начинать темы
Вы не можете отвечать на сообщения
Вы не можете редактировать свои сообщения
Вы не можете удалять свои сообщения
Вы не можете голосовать в опросах
Вы не можете прикреплять файлы к сообщениям
Вы не можете скачивать файлы