Loading...
Error

Маленькая принцесса (Владимир Грамматиков) [1997 г., Семейный , Детский, DVD5]

Ответить на тему
Статистика раздачи
Скачали: [ 7 ]
   
 
Автор Сообщение

stepan-frunze

Стаж: 8 лет 3 месяца

Сообщений: 2565

Russia

post 27-Окт-2013 21:56

[Цитировать] 

Маленькая принцесса

pic
Год выпуска: 1997
Жанр: Семейный , Детский
Продолжительность: 1 час 27 мин 23 сек

Режиссер: Владимир Грамматиков

В фильме снимались: Настя Меськова, Ляна Ильницкая, Маша Машкова, Катя Михайловская, Демидова, Алла Сергеевна, Ясулович, Игорь Николаевич, Егор Грамматиков

Описание: По мотивам одноименной повести Фрэнсис Бернетт.
Это романтическое повествование о маленькой девочке, которой пришлось пройти нелегкие испытания, происходит в конце XIX века в Лондоне. Капитан Кру привозит свою любимую дочь Сару, которую он называет "маленькой принцессой", в один из лучших и самых дорогих пансионов, чтобы она получила хорошее образование. Девочка тяжело переносит разлуку с отцом. Добрая, отзывчивая Сара быстро находит новых подруг даже среди слуг. Ее ум самостоятельность и уважительное отношение к людям покоряют всех. Однажды приходит трагическая весть - отец Сары капитан Кру умирает в Индии, не оставив дочери ни копейки. Сара нищая… Воспитанной в богатстве и достатке юной героине предстоит пройти через ненависть и унижение, голод и нищету. Но ее доброта, ум и находчивость помогают преодолеть все невзгоды. И конечно же, как в каждой рождественской сказке, все оканчивается хорошо.

Дополнительная информация: Призы:
XVII МКФ фильмов для детей в Москве (1998) — приз «Георгия Победоносца», актриса Настя Меськова — Большая золотая медаль.
«Ника» (1997) — оператор Александр Антипенко
Полиграфия в раздаче!

Качество: DVD5
Формат: DVD Video
Видео кодек: MPEG2
Аудио кодек: AC3
Видео:MPEG 2, 720x576 (4:3), 25.000 fps, 9 500 Kbps (0.916 bit/pixel)
Аудио:AC-3, 48.0 KHz, 2 ch, 192 Kbps, CBR
Скриншоты
pic pic pic

pic pic pic
MediaInfo
Общее
Полное имя : C:\На раздаче\Маленькая принцесса\VIDEO_TS\VIDEO_TS.BUP
Формат : DVD Video
Профиль формата : Menu
Размер файла : 12,0 Кбайт
Режим общего битрейта : Переменный

Видео
Идентификатор : 224 (0xE0)
Формат : MPEG Video
Версия формата : Version 2
Вид битрейта : Переменный
Ширина : 720 пикселей
Высота : 576 пикселей
Соотношение сторон : 4:3
Частота кадров : 25,000 кадров/сек
Стандарт вещания : PAL
Метод сжатия : С потерями

Текст
Формат : RLE
Формат/Информация : Run-length encoding
Битовая глубина : 2 бит

Общее
Полное имя : C:\На раздаче\Маленькая принцесса\VIDEO_TS\VIDEO_TS.IFO
Формат : DVD Video
Профиль формата : Menu
Размер файла : 12,0 Кбайт
Режим общего битрейта : Переменный

Видео
Идентификатор : 224 (0xE0)
Формат : MPEG Video
Версия формата : Version 2
Вид битрейта : Переменный
Ширина : 720 пикселей
Высота : 576 пикселей
Соотношение сторон : 4:3
Частота кадров : 25,000 кадров/сек
Стандарт вещания : PAL
Метод сжатия : С потерями

Текст
Формат : RLE
Формат/Информация : Run-length encoding
Битовая глубина : 2 бит

Общее
Полное имя : C:\На раздаче\Маленькая принцесса\VIDEO_TS\VIDEO_TS.VOB
Формат : MPEG-PS
Размер файла : 174 Кбайт
Продолжительность : 40 мс.
Общий поток : 35,6 Мбит/сек

Видео
Идентификатор : 224 (0xE0)
Формат : MPEG Video
Версия формата : Version 2
Профиль формата : Main@Main
Параметр BVOP формата : Нет
Параметр матрицы формата : Выборочная
Продолжительность : 40 мс.
Максимальный битрейт : 8000 Кбит/сек
Ширина : 720 пикселей
Высота : 576 пикселей
Соотношение сторон : 4:3
Частота кадров : 25,000 кадров/сек
Стандарт вещания : PAL
Цветовое пространство : YUV
Субдискретизация насыщенности : 4:2:0
Битовая глубина : 8 бит
Тип развёртки : Прогрессивная
Порядок развёртки : Верхнее поле первое
Метод сжатия : С потерями
Временной код первого кадра : 00:00:00:00
Оригинал временного кода : Group of pictures header

Меню

Общее
Полное имя : C:\На раздаче\Маленькая принцесса\VIDEO_TS\VTS_01_0.BUP
Формат : DVD Video
Профиль формата : Program
Размер файла : 58,0 Кбайт
Продолжительность : 1 ч. 27 м.
Режим общего битрейта : Переменный
Общий поток : 91 бит/сек

Видео
Идентификатор : 224 (0xE0)
Формат : MPEG Video
Версия формата : Version 2
Продолжительность : 1 ч. 27 м.
Вид битрейта : Переменный
Ширина : 720 пикселей
Высота : 576 пикселей
Соотношение сторон : 4:3
Частота кадров : 25,000 кадров/сек
Стандарт вещания : PAL
Метод сжатия : С потерями

Аудио
Идентификатор : 128 (0x80)
Формат : AC-3
Формат/Информация : Audio Coding 3
Продолжительность : 1 ч. 27 м.
Каналы : 2 канала
Частота : 48,0 КГц
Метод сжатия : С потерями
Язык : English

Меню #1
Продолжительность : 600 мс.
00:00:00.000 : Chapter 1

Меню #2
Продолжительность : 1 ч. 27 м.
00:00:00.000 : Chapter 1
00:11:02.040 : Chapter 2
00:21:51.000 : Chapter 3
00:32:53.000 : Chapter 4
00:44:00.600 : Chapter 5
00:54:50.920 : Chapter 6
01:05:56.440 : Chapter 7
01:15:52.560 : Chapter 8
List (Audio) : 0

Меню #3
Продолжительность : 600 мс.
00:00:00.000 : Chapter 1

Общее
Полное имя : C:\На раздаче\Маленькая принцесса\VIDEO_TS\VTS_01_0.IFO
Формат : DVD Video
Профиль формата : Program
Размер файла : 58,0 Кбайт
Продолжительность : 1 ч. 27 м.
Режим общего битрейта : Переменный
Общий поток : 91 бит/сек

Видео
Идентификатор : 224 (0xE0)
Формат : MPEG Video
Версия формата : Version 2
Продолжительность : 1 ч. 27 м.
Вид битрейта : Переменный
Ширина : 720 пикселей
Высота : 576 пикселей
Соотношение сторон : 4:3
Частота кадров : 25,000 кадров/сек
Стандарт вещания : PAL
Метод сжатия : С потерями

Аудио
Идентификатор : 128 (0x80)
Формат : AC-3
Формат/Информация : Audio Coding 3
Продолжительность : 1 ч. 27 м.
Каналы : 2 канала
Частота : 48,0 КГц
Метод сжатия : С потерями
Язык : English

Меню #1
Продолжительность : 600 мс.
00:00:00.000 : Chapter 1

Меню #2
Продолжительность : 1 ч. 27 м.
00:00:00.000 : Chapter 1
00:11:02.040 : Chapter 2
00:21:51.000 : Chapter 3
00:32:53.000 : Chapter 4
00:44:00.600 : Chapter 5
00:54:50.920 : Chapter 6
01:05:56.440 : Chapter 7
01:15:52.560 : Chapter 8
List (Audio) : 0

Меню #3
Продолжительность : 600 мс.
00:00:00.000 : Chapter 1

Общее
Полное имя : C:\На раздаче\Маленькая принцесса\VIDEO_TS\VTS_01_0.VOB
Формат : MPEG-PS
Размер файла : 142 Мбайт
Продолжительность : 30 с.
Режим общего битрейта : Переменный
Общий поток : 39,7 Мбит/сек

Видео
Идентификатор : 224 (0xE0)
Формат : MPEG Video
Версия формата : Version 2
Профиль формата : Main@Main
Параметр BVOP формата : Да
Параметр матрицы формата : Выборочная
Параметр GOP формата : M=3, N=15
Продолжительность : 30 с.
Вид битрейта : Переменный
Битрейт : 38,7 Мбит/сек
Максимальный битрейт : 9500 Кбит/сек
Ширина : 720 пикселей
Высота : 576 пикселей
Соотношение сторон : 4:3
Частота кадров : 25,000 кадров/сек
Стандарт вещания : PAL
Цветовое пространство : YUV
Субдискретизация насыщенности : 4:2:0
Битовая глубина : 8 бит
Тип развёртки : Чересстрочная
Порядок развёртки : Нижнее поле первое
Метод сжатия : С потерями
Бит/(Пиксели*Кадры) : 3.733
Временной код первого кадра : 00:00:00:00
Оригинал временного кода : Group of pictures header
Размер потока : 138 Мбайт (98%)

Аудио
Идентификатор : 189 (0xBD)-128 (0x80)
Формат : AC-3
Формат/Информация : Audio Coding 3
Расширение режима : CM (complete main)
Параметр Endianness формата : Big
Режим смешивания : DVD-Video
Продолжительность : 29 с.
Вид битрейта : Постоянный
Битрейт : 192 Кбит/сек
Каналы : 2 канала
Расположение каналов : Front: L R
Частота : 48,0 КГц
Битовая глубина : 16 бит
Метод сжатия : С потерями
Размер потока : 703 Кбайт (0%)

Меню

Общее
Полное имя : C:\На раздаче\Маленькая принцесса\VIDEO_TS\VTS_01_1.VOB
Формат : MPEG-PS
Размер файла : 1024 Мбайт
Продолжительность : 20 м.
Режим общего битрейта : Переменный
Общий поток : 7119 Кбит/сек

Видео
Идентификатор : 224 (0xE0)
Формат : MPEG Video
Версия формата : Version 2
Профиль формата : Main@Main
Параметр BVOP формата : Да
Параметр матрицы формата : Выборочная
Параметр GOP формата : M=3, N=15
Продолжительность : 20 м.
Вид битрейта : Переменный
Битрейт : 6786 Кбит/сек
Ширина : 720 пикселей
Высота : 576 пикселей
Соотношение сторон : 4:3
Частота кадров : 25,000 кадров/сек
Стандарт вещания : PAL
Цветовое пространство : YUV
Субдискретизация насыщенности : 4:2:0
Битовая глубина : 8 бит
Метод сжатия : С потерями
Бит/(Пиксели*Кадры) : 0.654
Размер потока : 976 Мбайт (95%)

Аудио
Идентификатор : 189 (0xBD)-128 (0x80)
Формат : AC-3
Формат/Информация : Audio Coding 3
Расширение режима : CM (complete main)
Параметр Endianness формата : Big
Режим смешивания : DVD-Video
Продолжительность : 20 м.
Вид битрейта : Постоянный
Битрейт : 192 Кбит/сек
Каналы : 2 канала
Расположение каналов : Front: L R
Частота : 48,0 КГц
Битовая глубина : 16 бит
Метод сжатия : С потерями
Задержка видео : -50 мс.
Размер потока : 27,6 Мбайт (3%)

Меню

Общее
Полное имя : C:\На раздаче\Маленькая принцесса\VIDEO_TS\VTS_01_2.VOB
Формат : MPEG-PS
Размер файла : 1024 Мбайт
Продолжительность : 22 м.
Режим общего битрейта : Переменный
Общий поток : 6420 Кбит/сек

Видео
Идентификатор : 224 (0xE0)
Формат : MPEG Video
Версия формата : Version 2
Профиль формата : Main@Main
Параметр BVOP формата : Да
Параметр матрицы формата : Выборочная
Параметр GOP формата : M=3, N=15
Продолжительность : 22 м.
Вид битрейта : Переменный
Битрейт : 6100 Кбит/сек
Максимальный битрейт : 9500 Кбит/сек
Ширина : 720 пикселей
Высота : 576 пикселей
Соотношение сторон : 4:3
Частота кадров : 25,000 кадров/сек
Стандарт вещания : PAL
Цветовое пространство : YUV
Субдискретизация насыщенности : 4:2:0
Битовая глубина : 8 бит
Тип развёртки : Чересстрочная
Порядок развёртки : Нижнее поле первое
Метод сжатия : С потерями
Бит/(Пиксели*Кадры) : 0.588
Временной код первого кадра : 00:20:06:23
Оригинал временного кода : Group of pictures header
Размер потока : 973 Мбайт (95%)

Аудио
Идентификатор : 189 (0xBD)-128 (0x80)
Формат : AC-3
Формат/Информация : Audio Coding 3
Расширение режима : CM (complete main)
Параметр Endianness формата : Big
Режим смешивания : DVD-Video
Продолжительность : 22 м.
Вид битрейта : Постоянный
Битрейт : 192 Кбит/сек
Каналы : 2 канала
Расположение каналов : Front: L R
Частота : 48,0 КГц
Битовая глубина : 16 бит
Метод сжатия : С потерями
Задержка видео : -520 мс.
Размер потока : 30,6 Мбайт (3%)

Меню

Общее
Полное имя : C:\На раздаче\Маленькая принцесса\VIDEO_TS\VTS_01_3.VOB
Формат : MPEG-PS
Размер файла : 1024 Мбайт
Продолжительность : 24 м.
Режим общего битрейта : Переменный
Общий поток : 5785 Кбит/сек

Видео
Идентификатор : 224 (0xE0)
Формат : MPEG Video
Версия формата : Version 2
Профиль формата : Main@Main
Параметр BVOP формата : Да
Параметр матрицы формата : Выборочная
Параметр GOP формата : M=3, N=15
Продолжительность : 24 м.
Вид битрейта : Переменный
Битрейт : 5478 Кбит/сек
Максимальный битрейт : 9500 Кбит/сек
Ширина : 720 пикселей
Высота : 576 пикселей
Соотношение сторон : 4:3
Частота кадров : 25,000 кадров/сек
Стандарт вещания : PAL
Цветовое пространство : YUV
Субдискретизация насыщенности : 4:2:0
Битовая глубина : 8 бит
Тип развёртки : Чересстрочная
Порядок развёртки : Нижнее поле первое
Метод сжатия : С потерями
Бит/(Пиксели*Кадры) : 0.528
Временной код первого кадра : 00:42:25:05
Оригинал временного кода : Group of pictures header
Размер потока : 969 Мбайт (95%)

Аудио
Идентификатор : 189 (0xBD)-128 (0x80)
Формат : AC-3
Формат/Информация : Audio Coding 3
Расширение режима : CM (complete main)
Параметр Endianness формата : Big
Режим смешивания : DVD-Video
Продолжительность : 24 м.
Вид битрейта : Постоянный
Битрейт : 192 Кбит/сек
Каналы : 2 канала
Расположение каналов : Front: L R
Частота : 48,0 КГц
Битовая глубина : 16 бит
Метод сжатия : С потерями
Задержка видео : -720 мс.
Размер потока : 34,0 Мбайт (3%)

Меню

Общее
Полное имя : C:\На раздаче\Маленькая принцесса\VIDEO_TS\VTS_01_4.VOB
Формат : MPEG-PS
Размер файла : 991 Мбайт
Режим общего битрейта : Переменный

Видео
Идентификатор : 224 (0xE0)
Формат : MPEG Video
Версия формата : Version 2
Профиль формата : Main@Main
Параметр BVOP формата : Да
Параметр матрицы формата : Выборочная
Параметр GOP формата : Variable
Вид битрейта : Переменный
Максимальный битрейт : 9500 Кбит/сек
Ширина : 720 пикселей
Высота : 576 пикселей
Соотношение сторон : 4:3
Частота кадров : 25,000 кадров/сек
Стандарт вещания : PAL
Цветовое пространство : YUV
Субдискретизация насыщенности : 4:2:0
Битовая глубина : 8 бит
Тип развёртки : Чересстрочная
Порядок развёртки : Нижнее поле первое
Метод сжатия : С потерями
Временной код первого кадра : 01:07:09:21
Оригинал временного кода : Group of pictures header

Аудио
Идентификатор : 189 (0xBD)-128 (0x80)
Формат : AC-3
Формат/Информация : Audio Coding 3
Расширение режима : CM (complete main)
Параметр Endianness формата : Big
Режим смешивания : DVD-Video
Вид битрейта : Постоянный
Битрейт : 192 Кбит/сек
Каналы : 2 канала
Расположение каналов : Front: L R
Частота : 48,0 КГц
Битовая глубина : 16 бит
Метод сжатия : С потерями
Задержка видео : -560 мс.

Меню
DVDinfo
Title: Маленькая принцесса
Size: 4.11 Gb ( 4 306 378,00 KBytes ) - DVD-5
Enabled regions: 1, 2, 3, 4, 5, 6, 8

VTS_01 :
Play Length: 00:00:00+01:27:23+{00:00:00}+{00:00:00}+00:01:02+{00:00:00}
Video: PAL 4:3 (720x576) VBR
Audio:
English (Dolby AC3, 2 ch)

* Menus Information *

VIDEO_TS Menu
Video:
PAL 4:3 (720x576) VBR
English Language Unit :
Title Menu

VTS_01 Menu
Video:
PAL 4:3 (720x576) VBR
Audio:
Not specified (Dolby AC3, 2 ch)
English Language Unit :
Root Menu
Chapter (PTT) Menu
pic
Download

Войдите для скачивания торрент-файла

Как скачивать  ·   Правила трекера



Последний раз редактировалось: stepan-frunze (2014-06-20 00:59), всего редактировалось 9 раз(а)
[Профиль]  [ЛС] 

karmen1977

Стаж: 6 лет 10 месяцев

Сообщений: 69

Откуда: Нижний Новгород

Russia

post 12-Янв-2014 05:45 (спустя 2 месяца 15 дней)

[Цитировать] 

Спаси Господи!!!!

_________________
Христос Воскресе!
[Профиль]  [ЛС] 

stepan-frunze

Стаж: 8 лет 3 месяца

Сообщений: 2565

Russia

post 21-Апр-2014 00:47 (спустя 3 месяца 8 дней)

[Цитировать] 

pic
[Профиль]  [ЛС] 
Показать сообщения:    
Ответить на тему

Текущее время: 25-Июн 14:28

Часовой пояс: GMT + 4



Вы не можете начинать темы
Вы не можете отвечать на сообщения
Вы не можете редактировать свои сообщения
Вы не можете удалять свои сообщения
Вы не можете голосовать в опросах
Вы не можете прикреплять файлы к сообщениям
Вы не можете скачивать файлы