Loading...
Error

Прямая линия. Ответ священника (ТК «Спас») 482 + 94 = 576 выпусков (видео + mp3 + онлайн) [2017-2019 гг., Вопросоответы, TVRip]

Ответить на тему
Статистика раздачи
   
 
Автор Сообщение

Shumoffon

Стаж: 9 лет

Сообщений: 22

Откуда: Кемерово

Russia

post 29-Апр-2019 13:41

[Цитировать] 

Прямая линия. Ответ священника 482 + 94 = 576 выпусков (видео + mp3 + онлайн)

Год выпуска: 2017-2019
Жанр: Вопросоответы
Продолжительность: 482 + 94 = 576 по часу-полутора

ПАПКА АУДИО: 482 файла 51,0 ГБ (54 826 889 527 байт) : 633:35:37
ПАПКА ВИДЕО: 482 файла 120 ГБ (129 162 990 289 байт) : 633:35:07
ПАПКА ОНЛАЙН: 94 файла 11,7 ГБ (12 571 329 116 байт) : 145:18:49

Полный объём папки ПЛОС: 183 ГБ (196 561 208 932 байт)

Режиссер: ТК «Спас»

Описание: Вопросоответы с разными приглашёнными батюшками и владыками в студии православного телеканала «Спас».
Вопросы принимаются через соцсети, также звонят прямо в студию по телефону, а с некоторых пор зачем-то и по Skype. Question

История создания релиза
скрытый текст
Да уж, как промыслительно я отформатировал жёсткий диск с в том числе и файлами для этой раздачи. Это сподвигло более чётко по новой подойти к её повторному созданию. На данный момент на офканале В ПЛЕЙЛИСТАХ ~422 + 93 = ~515 видео. Поработав пару суток с не менее чем пятью программами для скачки Youtube, а также программами для создания скриншотов, их распознаванию, поиску по слабо распознанному содержимому, я с уверенностью могу сказать, что на самом деле расклад видео таков: ~450 + 94 = ~544. Почему не все видео выделены в соответствующий плейлист на офканале - вопрос. АПДЕЙТик: стОит заметить, что на момент, скажем, 4 декабря 2019 ситуация несколько изменилась.
Проделана колоссальная работа по скачке, конвертации, переименованию файлов в последовательности НАЧИНАЯ С ПЕРВОГО и до сегодняшнего. В конце концов я уж начал было думать, что я сам вручную пишу каждую букву в названиях. Question
Вы можете сказать, что и раньше было в этой раздаче больше видео, чем в офплейлисте. Да, но НА ОДНО. =)))))) Теперь - на аж 29. А это, считай, целый месяц из расчёта видео в день.
Внёс свои коррективы в наименования выпусков. "Священник" заменил сопутствующим саном. И так ведь понятно, что ответ священника. Тавтологичненько на офканале вышло... =( Ещё проставил буквы Ё. Более того, теперь облегчено добавление новых серий, так как нумерация, как указывал выше, с НАЧАЛА передачи! Нулевые серии - без нуля в названии. "-1" - это втораявстреча и т. д.
Видео рубрики ОНЛАЙН выкладывать не стал. Ну, такое это дело - смотреть... по вебке, я полагаю.
Перепроверил порядок нумерации первый раз во время разбора разрозненной скачки и второй раз - при формировании непосредственно папок. И правки... всё же были! И если я всё ещё что-то упустил, то немедленно стучите в ЛС - нельзя это так оставлять! Very Happy

Видео скачано в формате "самое лучшее из доступного", аудио получал отдельно от этого скачанного видео из другой программы.

Самый короткий выпуск - самый первый - пилотный - всего 54 минуты - ОТВЕТ СВЯЩЕННИКА. ПРОТОИЕРЕЙ МИХАИЛ ЗАЗВОНОВ.
Самый долгий выпуск - 2 часа 15 минут - ОТВЕТ СВЯЩЕННИКА. ПРОТОИЕРЕЙ ДИМИТРИЙ СМИРНОВ И ПРОТОИЕРЕЙ АРТЕМИЙ ВЛАДИМИРОВ.
Отчёт MediaInfo по трём рандомно взятым файлам из папки АУДИО
скрытый текст
Общее
Полное имя : D:\ПЛОС\АУДИО\ОТВЕТ СВЯЩЕННИКА. ИГУМЕН ЛУКА (СТЕПАНОВ)-8.mp3
Формат : MPEG Audio
Размер файла : 102 Мбайт
Продолжительность : 1 ч. 14 м.
Режим общего битрейта : Переменный
Общий поток : 192 Кбит/сек
Библиотека кодирования : LAME3.100.1
Обложка : Yes
Тип обложки : Cover (front)
MIME-тип обложки : image/jpeg
major_brand : ajor
minor_version : i
compatible_brands : ompatibl

Аудио
Формат : MPEG Audio
Версия формата : Version 1
Профиль формата : Layer 3
Настройки формата : Joint stereo / MS Stereo
Продолжительность : 1 ч. 14 м.
Вид битрейта : Переменный
Битрейт : 192 Кбит/сек
Каналы : 2 канала
Частота : 44,1 КГц
Частота кадров : 38,281 кадров/сек (1152 SPF)
Метод сжатия : С потерями
Размер потока : 102 Мбайт (100%)
Библиотека кодирования : LAME3.100.1

Общее
Полное имя : D:\ПЛОС\АУДИО\ОТВЕТ СВЯЩЕННИКА. ИЕРЕЙ ГРИГОРИЙ ГЕРОНИМУС-12.mp3
Формат : MPEG Audio
Размер файла : 106 Мбайт
Продолжительность : 1 ч. 17 м.
Режим общего битрейта : Переменный
Общий поток : 192 Кбит/сек
Библиотека кодирования : LAME3.100.1
Обложка : Yes
Тип обложки : Cover (front)
MIME-тип обложки : image/jpeg
major_brand : ajor
minor_version : i
compatible_brands : ompatibl

Аудио
Формат : MPEG Audio
Версия формата : Version 1
Профиль формата : Layer 3
Настройки формата : Joint stereo / MS Stereo
Продолжительность : 1 ч. 17 м.
Вид битрейта : Переменный
Битрейт : 192 Кбит/сек
Каналы : 2 канала
Частота : 44,1 КГц
Частота кадров : 38,281 кадров/сек (1152 SPF)
Метод сжатия : С потерями
Размер потока : 106 Мбайт (100%)
Библиотека кодирования : LAME3.100.1

Общее
Полное имя : D:\ПЛОС\АУДИО\ОТВЕТ СВЯЩЕННИКА. ИЕРЕЙ ПАВЕЛ ОСТРОВСКИЙ-18.mp3
Формат : MPEG Audio
Размер файла : 106 Мбайт
Продолжительность : 1 ч. 16 м.
Режим общего битрейта : Переменный
Общий поток : 192 Кбит/сек
Библиотека кодирования : LAME3.100.1
Обложка : Yes
Тип обложки : Cover (front)
MIME-тип обложки : image/jpeg
major_brand : ajor
minor_version : i
compatible_brands : ompatibl

Аудио
Формат : MPEG Audio
Версия формата : Version 1
Профиль формата : Layer 3
Настройки формата : Joint stereo / MS Stereo
Продолжительность : 1 ч. 16 м.
Вид битрейта : Переменный
Битрейт : 192 Кбит/сек
Каналы : 2 канала
Частота : 44,1 КГц
Частота кадров : 38,281 кадров/сек (1152 SPF)
Метод сжатия : С потерями
Размер потока : 106 Мбайт (100%)
Библиотека кодирования : LAME3.100.1
Отчёт MediaInfo по трём рандомно взятым файлам из папки ВИДЕО
скрытый текст
Общее
Полное имя : D:\ПЛОС\ВИДЕО\ОТВЕТ СВЯЩЕННИКА. МИТРОПОЛИТ КАЗАНСКИЙ И ТАТАРСТАНСКИЙ ФЕОФАН-2.mp4
Формат : MPEG-4
Профиль формата : Base Media
Идентификатор кодека : isom (isom/iso2/avc1/mp41)
Размер файла : 187 Мбайт
Продолжительность : 59 м. 8 с.
Общий поток : 443 Кбит/сек
Программа кодирования : Lavf58.20.100
Обложка : Yes

Видео
Идентификатор : 1
Формат : AVC
Формат/Информация : Advanced Video Codec
Профиль формата : Main@L3
Настройки формата : CABAC / 3 Ref Frames
Параметр CABAC формата : Да
Параметр RefFrames формата : 3 кадра
Идентификатор кодека : avc1
Идентификатор кодека/Информация : Advanced Video Coding
Продолжительность : 59 м. 8 с.
Битрейт : 311 Кбит/сек
Ширина : 854 пикселя
Высота : 480 пикселей
Соотношение сторон : 16:9
Режим частоты кадров : Постоянный
Частота кадров : 25,000 кадров/сек
Цветовое пространство : YUV
Субдискретизация насыщенности : 4:2:0
Битовая глубина : 8 бит
Тип развёртки : Прогрессивная
Бит/(Пиксели*Кадры) : 0.030
Размер потока : 132 Мбайт (70%)
Codec configuration box : avcC

Аудио
Идентификатор : 2
Формат : AAC LC
Формат/Информация : Advanced Audio Codec Low Complexity
Идентификатор кодека : mp4a-40-2
Продолжительность : 59 м. 8 с.
Вид битрейта : Постоянный
Битрейт : 126 Кбит/сек
Каналы : 2 канала
ChannelLayout : L R
Частота : 44,1 КГц
Частота кадров : 43,066 кадра/сек (1024 SPF)
Метод сжатия : С потерями
Размер потока : 53,1 Мбайт (28%)
Default : Да
AlternateGroup/String : 1

Общее
Полное имя : D:\ПЛОС\ВИДЕО\ОТВЕТ СВЯЩЕННИКА. ПРОТОИЕРЕЙ АЛЕКСЕЙ БАТАНОГОВ-15.mp4
Формат : MPEG-4
Профиль формата : Base Media
Идентификатор кодека : isom (isom/iso2/avc1/mp41)
Размер файла : 260 Мбайт
Продолжительность : 1 ч. 16 м.
Общий поток : 477 Кбит/сек
Программа кодирования : Lavf58.20.100
Обложка : Yes

Видео
Идентификатор : 1
Формат : AVC
Формат/Информация : Advanced Video Codec
Профиль формата : Main@L3
Настройки формата : CABAC / 3 Ref Frames
Параметр CABAC формата : Да
Параметр RefFrames формата : 3 кадра
Идентификатор кодека : avc1
Идентификатор кодека/Информация : Advanced Video Coding
Продолжительность : 1 ч. 16 м.
Битрейт : 342 Кбит/сек
Ширина : 854 пикселя
Высота : 480 пикселей
Соотношение сторон : 16:9
Режим частоты кадров : Постоянный
Частота кадров : 25,000 кадров/сек
Цветовое пространство : YUV
Субдискретизация насыщенности : 4:2:0
Битовая глубина : 8 бит
Тип развёртки : Прогрессивная
Бит/(Пиксели*Кадры) : 0.033
Размер потока : 187 Мбайт (72%)
Заголовок : ISO Media file produced by Google Inc. Created on: 10/29/2018.
Codec configuration box : avcC

Аудио
Идентификатор : 2
Формат : AAC LC
Формат/Информация : Advanced Audio Codec Low Complexity
Идентификатор кодека : mp4a-40-2
Продолжительность : 1 ч. 16 м.
Вид битрейта : Постоянный
Битрейт : 128 Кбит/сек
Каналы : 2 канала
ChannelLayout : L R
Частота : 44,1 КГц
Частота кадров : 43,066 кадра/сек (1024 SPF)
Метод сжатия : С потерями
Размер потока : 69,9 Мбайт (27%)
Заголовок : ISO Media file produced by Google Inc. Created on: 10/29/2018.
Default : Да
AlternateGroup/String : 1

Общее
Полное имя : D:\ПЛОС\ВИДЕО\ОТВЕТ СВЯЩЕННИКА. ПРОТОИЕРЕЙ АРТЕМИЙ ВЛАДИМИРОВ-34.mp4
Формат : MPEG-4
Профиль формата : Base Media
Идентификатор кодека : isom (isom/iso2/avc1/mp41)
Размер файла : 363 Мбайт
Продолжительность : 1 ч. 29 м.
Общий поток : 567 Кбит/сек
Программа кодирования : Lavf58.20.100
Обложка : Yes

Видео
Идентификатор : 1
Формат : AVC
Формат/Информация : Advanced Video Codec
Профиль формата : Main@L3
Настройки формата : CABAC / 3 Ref Frames
Параметр CABAC формата : Да
Параметр RefFrames формата : 3 кадра
Идентификатор кодека : avc1
Идентификатор кодека/Информация : Advanced Video Coding
Продолжительность : 1 ч. 29 м.
Битрейт : 433 Кбит/сек
Ширина : 854 пикселя
Высота : 480 пикселей
Соотношение сторон : 16:9
Режим частоты кадров : Постоянный
Частота кадров : 25,000 кадров/сек
Цветовое пространство : YUV
Субдискретизация насыщенности : 4:2:0
Битовая глубина : 8 бит
Тип развёртки : Прогрессивная
Бит/(Пиксели*Кадры) : 0.042
Размер потока : 277 Мбайт (76%)
Заголовок : ISO Media file produced by Google Inc.
Библиотека кодирования : x264 core 155 r2901 7d0ff22
Codec configuration box : avcC

Аудио
Идентификатор : 2
Формат : AAC LC
Формат/Информация : Advanced Audio Codec Low Complexity
Идентификатор кодека : mp4a-40-2
Продолжительность : 1 ч. 29 м.
Вид битрейта : Постоянный
Битрейт : 128 Кбит/сек
Каналы : 2 канала
ChannelLayout : L R
Частота : 44,1 КГц
Частота кадров : 43,066 кадра/сек (1024 SPF)
Метод сжатия : С потерями
Размер потока : 81,9 Мбайт (23%)
Заголовок : ISO Media file produced by Google Inc.
Default : Да
AlternateGroup/String : 1
Скрины
скрытый текст
pic
pic
pic
pic
Отчёт MediaInfo по трём рандомно взятым файлам из папки ОНЛАЙН
скрытый текст
Общее
Полное имя : D:\ПЛОС\ОНЛАЙН\ОТВЕТ СВЯЩЕННИКА. ОНЛАЙН. ИЕРЕЙ НИКОЛАЙ БАБКИН-4.mp3
Формат : MPEG Audio
Размер файла : 117 Мбайт
Продолжительность : 1 ч. 24 м.
Режим общего битрейта : Переменный
Общий поток : 192 Кбит/сек
Библиотека кодирования : LAME3.100.1
Обложка : Yes
Тип обложки : Cover (front)
MIME-тип обложки : image/jpeg
major_brand : ajor
minor_version : i
compatible_brands : ompatibl

Аудио
Формат : MPEG Audio
Версия формата : Version 1
Профиль формата : Layer 3
Настройки формата : Joint stereo / MS Stereo
Продолжительность : 1 ч. 24 м.
Вид битрейта : Переменный
Битрейт : 192 Кбит/сек
Каналы : 2 канала
Частота : 44,1 КГц
Частота кадров : 38,281 кадров/сек (1152 SPF)
Метод сжатия : С потерями
Размер потока : 117 Мбайт (100%)
Библиотека кодирования : LAME3.100.1

Общее
Полное имя : D:\ПЛОС\ОНЛАЙН\ОТВЕТ СВЯЩЕННИКА. ОНЛАЙН. ПРОТОИЕРЕЙ АЛЕКСАНДР ЕСЕНИН-29.mp3
Формат : MPEG Audio
Размер файла : 136 Мбайт
Продолжительность : 1 ч. 39 м.
Режим общего битрейта : Переменный
Общий поток : 192 Кбит/сек
Библиотека кодирования : LAME3.100.1
Обложка : Yes
Тип обложки : Cover (front)
MIME-тип обложки : image/jpeg
major_brand : ajor
minor_version : i
compatible_brands : ompatibl

Аудио
Формат : MPEG Audio
Версия формата : Version 1
Профиль формата : Layer 3
Настройки формата : Joint stereo / MS Stereo
Продолжительность : 1 ч. 39 м.
Вид битрейта : Переменный
Битрейт : 192 Кбит/сек
Каналы : 2 канала
Частота : 44,1 КГц
Частота кадров : 38,281 кадров/сек (1152 SPF)
Метод сжатия : С потерями
Размер потока : 136 Мбайт (100%)
Библиотека кодирования : LAME3.100.1

Общее
Полное имя : D:\ПЛОС\ОНЛАЙН\ОТВЕТ СВЯЩЕННИКА. ОНЛАЙН. ПРОТОИЕРЕЙ АЛЕКСАНДР ЕСЕНИН-73.mp3
Формат : MPEG Audio
Размер файла : 127 Мбайт
Продолжительность : 1 ч. 32 м.
Режим общего битрейта : Переменный
Общий поток : 192 Кбит/сек
Библиотека кодирования : LAME3.100.1
Обложка : Yes
Тип обложки : Cover (front)
MIME-тип обложки : image/jpeg
major_brand : ajor
minor_version : i
compatible_brands : ompatibl

Аудио
Формат : MPEG Audio
Версия формата : Version 1
Профиль формата : Layer 3
Настройки формата : Joint stereo / MS Stereo
Продолжительность : 1 ч. 32 м.
Вид битрейта : Переменный
Битрейт : 192 Кбит/сек
Каналы : 2 канала
Частота : 44,1 КГц
Частота кадров : 38,281 кадров/сек (1152 SPF)
Метод сжатия : С потерями
Размер потока : 127 Мбайт (100%)
Библиотека кодирования : LAME3.100.1
Если востребованности в скАчке не будет, буду и дальше смотреть "в одно рыло". Smile

Администрации: можете удалить любой мой релиз без вопросов, только уведомите об этом, пожалуйста. Модератор, удалите, пожалуйста, комментарии, если вы это читаете.

Касательно обновления: постоит пока так к Новому году. (теперь точно Very Happy )
скрытый текст
Ну а пока что монументализируем Cool :
Download

Войдите на сайт, чтобы увидеть полную информацию.

Как скачивать  ·   Правила трекера


_________________
Слава БОГУ абсолютно ЗА ВСЁ! Желающим отблагодарить за релизы могу сообщить киви/яндекс в ЛС.


Последний раз редактировалось: Shumoffon (2019-12-04 16:02), всего редактировалось 46 раз(а)
[Профиль]  [ЛС] 

Ox!

Стаж: 8 лет 5 месяцев

Сообщений: 22

post 30-Апр-2019 06:54 (спустя 17 часов)

[Цитировать] 

Благодарю за труды!
Где нет имени священника, надо бы добавить.
Лучше, если для каждого автора будет своя подпапка в раздаче (кроме выпусков с неск.авторами).
И хорошо бы продублировать раздачу на рутрекер, там можно выборочно скачать только нужные выпуски.
А 2018,2019 тоже сделаете?
[Профиль]  [ЛС] 

Shumoffon

Стаж: 9 лет

Сообщений: 22

Откуда: Кемерово

Russia

post 03-Май-2019 08:50 (спустя 3 дня)

[Цитировать] 

Продублировал на nnmclub и rutracker.

_________________
Слава БОГУ абсолютно ЗА ВСЁ! Желающим отблагодарить за релизы могу сообщить киви/яндекс в ЛС.
[Профиль]  [ЛС] 

royalstag

Стаж: 4 года 1 месяц

Сообщений: 470

Russia

post 05-Май-2019 16:30 (спустя 2 дня 7 часов)

[Цитировать] 

Shumoffon
с рутреккера точно удалят
[Профиль]  [ЛС] 

aromag77

Стаж: 3 года 8 месяцев

Сообщений: 1

Russia

post 15-Июн-2019 01:47 (спустя 1 месяц 9 дней)

[Цитировать] 

Благодарю. А нет-ли возможности выложить точно так же в mp3? Можно даже без сортировки по выступающим, а прямо по порядку
[Профиль]  [ЛС] 

royalstag

Стаж: 4 года 1 месяц

Сообщений: 470

Russia

post 05-Июл-2019 13:48 (спустя 20 дней)

[Цитировать] 

aromag77 писал(а):

А нет-ли возможности выложить точно так же в mp3?
и кто этим будет заниматься ?
[Профиль]  [ЛС] 

Shumoffon

Стаж: 9 лет

Сообщений: 22

Откуда: Кемерово

Russia

post 06-Июл-2019 15:53 (спустя 1 день 2 часа)

[Цитировать] 

Обновил. Пораздаю кроме ночи пока так.

_________________
Слава БОГУ абсолютно ЗА ВСЁ! Желающим отблагодарить за релизы могу сообщить киви/яндекс в ЛС.
[Профиль]  [ЛС] 

Ox!

Стаж: 8 лет 5 месяцев

Сообщений: 22

post 11-Сен-2019 11:15 (спустя 2 месяца 4 дня)

[Цитировать] 

Меня интересуют только некоторые священники, а у Вас 23 выпуска без их имен. Так я смогу скачать всё, а потом удалить тех, кто меня не интересует. Добавили бы имена, не так уж много труда.
[Профиль]  [ЛС] 

royalstag

Стаж: 4 года 1 месяц

Сообщений: 470

Russia

post 15-Сен-2019 15:31 (спустя 4 дня)

[Цитировать] 

Ox! писал(а):

Добавили бы имена, не так уж много труда
а вы попробуйте раздачу создать и посмотрите - много времени надо или нет
[Профиль]  [ЛС] 

Shumoffon

Стаж: 9 лет

Сообщений: 22

Откуда: Кемерово

Russia

post 17-Сен-2019 14:31 (спустя 1 день 22 часа)

[Цитировать] 

сорян, хард накрылся...

_________________
Слава БОГУ абсолютно ЗА ВСЁ! Желающим отблагодарить за релизы могу сообщить киви/яндекс в ЛС.
[Профиль]  [ЛС] 

royalstag

Стаж: 4 года 1 месяц

Сообщений: 470

Russia

post 17-Сен-2019 23:58 (спустя 9 часов)

[Цитировать] 

Shumoffon писал(а):

хард накрылся
раздача умерла?
[Профиль]  [ЛС] 

Shumoffon

Стаж: 9 лет

Сообщений: 22

Откуда: Кемерово

Russia

post 18-Сен-2019 14:28 (спустя 14 часов)

[Цитировать] 

royalstag писал(а):

Shumoffon писал(а):

хард накрылся
раздача умерла?
эта - да. не переживайте, сделаю лучше; особенно когда будет 400 выпусков; глядишь, что-то придумаю к такому юбилею.

_________________
Слава БОГУ абсолютно ЗА ВСЁ! Желающим отблагодарить за релизы могу сообщить киви/яндекс в ЛС.
[Профиль]  [ЛС] 
Показать сообщения:    
Ответить на тему

Текущее время: 07-Дек 18:04

Часовой пояс: GMT + 4



Вы не можете начинать темы
Вы не можете отвечать на сообщения
Вы не можете редактировать свои сообщения
Вы не можете удалять свои сообщения
Вы не можете голосовать в опросах
Вы не можете прикреплять файлы к сообщениям
Вы не можете скачивать файлы