Loading...
Error

Перенос раздач

Ответить на тему
 
Автор Сообщение

Илия_Д

Стаж: 3 года 8 месяцев

Сообщений: 2

Russia

post 10-Ноя-2015 00:31

[Цитировать] 

Здравствуйте, братья и сестры!
Зарегистрировался час назад и дерзну попросить вас о помощи. Хочу перенести свои раздачи, коих накопилось 11 штук, с Рутрекера сюда, чтобы они остались в общем доступе. Но в силу обстоятельств, у меня нет на это времени.... Может, кто-нибудь возьмет сей труд на себя?
Ссылки на раздачи:
http://rutracker.org/forum/viewtopic.php?t=4274552;
http://rutracker.org/forum/viewtopic.php?t=4605215;
http://rutracker.org/forum/viewtopic.php?t=3451874;
http://rutracker.org/forum/viewtopic.php?t=4258043;
http://rutracker.org/forum/viewtopic.php?t=4757708;
http://rutracker.org/forum/viewtopic.php?t=4760440;
http://rutracker.org/forum/viewtopic.php?t=4851316;
http://rutracker.org/forum/viewtopic.php?t=4779145;
http://rutracker.org/forum/viewtopic.php?t=4749189;
http://rutracker.org/forum/viewtopic.php?t=4745036;
http://rutracker.org/forum/viewtopic.php?t=4744434.

_________________
http://ortodox-blog.ru/
[Профиль]  [ЛС] 

Виталий Липатов

Администратор

Стаж: 49 лет

Сообщений: 507

Russia

post 08-Дек-2015 12:56 (спустя 28 дней)

[Цитировать] 

Остался один день до блокирования rutracker.
В перенесении раздач самое сложное — это описание. Если вы автор раздач, то у вас есть возможность скопировать описание раздачи в исходном виде.
[Профиль]  [ЛС] 

Natalie_Nezh

Стаж: 7 лет 6 месяцев

Сообщений: 9

Откуда: Кёнигсберг

Russia

post 22-Дек-2015 18:45 (спустя 14 дней)

[Цитировать] 

По поводу переноса 11 раздач от Илия_Д

Виталий Липатов писал(а):

Остался один день до блокирования rutracker.
В перенесении раздач самое сложное — это описание. Если вы автор раздач, то у вас есть возможность скопировать описание раздачи в исходном виде.
Сколько там дней осталось - неизвестно. Подаются апелляции, их отклоняют, подаются ещё... К тому же уже были проведены "учения" по обходу блокировки, и по статистике только 2% не справились, а на посещаемость это не повлияло.

Что касается описаний - их может вытянуть с РуТрекера (со всеми ВВ-кодами) не только автор. Ну, конечно, надо проявить изобретательность... Smile Вот пожалуйста, для желающих помочь, прилагаю все описания этих раздач. Я бы и сама что-то из них перевыложила, есть хорошие, но времени у меня сейчас очень мало, да и канал в нашей деревне плохой на отдачу... Так что - чем могу. (Естественно, всё приведено "как есть", так что при создании раздачи нужно слегка подредактировать).




http://rutracker.org/forum/viewtopic.php?t=4274552
скрытый текст

Код:

[size=24]Библейский сюжет[/size]

[img=right]http://i30.fastpic.ru/big/2011/1026/ca/db4eb8a48f1cbbd8da5d27be17ad89ca.jpg[/img][b]Год выпуска[/b]: С 2002
[b]Страна[/b]: Россия
[b]Жанр[/b]: Биографический
[b]Продолжительность[/b]: 382х25 мин.
[b]Перевод[/b]: Не требуется
[b]Русские субтитры[/b]: нет

[b]Режиссер[/b]: Елена Китаева

[b]Описание[/b]: Обращение великих художников к Библии никогда не заканчивалось только иллюстрацией того или иного сюжета Вечной Книги. Оно всегда предполагало личное осмысление. Художник выбирал библейскую историю, чтобы рассказать о себе, о своем времени, чтобы глубже постичь смысл происходящего.
Язык образов Святого Писания был универсален и понятен для всех. Но теперь для нас этот язык наполовину забыт. Мы уже не можем так ясно, с листа, читать всё, что говорили в своих произведениях художники, поэты, композиторы и писатели прошлого. Мы более опираемся на чувственное восприятие, которое все же является только частью замысла, его внешней стороной.
В программе «Библейский сюжет» делается попытка соединить «прекрасного разрозненные части», по-другому взглянуть на всемирно известные произведения искусства, рассказать о судьбе их создателей.

[b]Доп. информация[/b]: В раздаче представлены все выпуски программы, выходившие с 2002г.
[color=red][size=24]По мере появления новых выпусков торрент будет обновляться![/size][/color]

[color=green][size=24]Торрент обновлён! Добавлен файл 382. Василий Жуковский. Светлана.
[/size][/color]

[b]Качество[/b]: TVRip
[b]Формат[/b]: AVI
[b]Видео кодек[/b]: XviD
[b]Аудио кодек[/b]: MP3
[b]Видео[/b]: 640x480 (1.33:1), 25 fps, XviD build 47 ~999 kbps avg, 0.13 bit/pixel
[b]Аудио[/b]: 44.100 kHz, MPEG Layer 3, 2 ch, ~128.00 kbps avg
[b]Сэмпл[/b]: [url]http://multi-up.com/987230[/url][spoiler="Список выпусков"]001. Вавилонская башня. 20 век;
002. Леонардо да Винчи. Тайная Вечеря;
003. Микеланджело Буонарроти. Сотворение мира;
004. Рембрандт ван Рейн. Возвращение блудного сына;
005. Андрей Тарковский. Путешествие в Эммаус;
006. Тенгиз Абуладзе. Мольба;
007. Иосиф Бродский. Сретение;
008. Питер Брейгель. Несение Креста;
009. Александр Серов. Юдифь;
010. Александр Иванов. Явление Мессии;
011. Борис Пастернак. Гефсиманский сад;
012. Карл Брюллов. Содом и Гоморра;
013. Фёдор Бруни. Медный Змий;
014. Джузеппе Верди. Вавилонский плен;
015. Виктор Васнецов. Богородица с Младенцем;
016. Александр Пушкин. Пир во время чумы;
017. Андрей Рублев. Пресвятая Троица;
018. Анна Ахматова. Лотова жена;
019. Рафаэль Санти. Преображение;
020. Вильгельм Кюхельбекер. Давид;
021. Андрей Тарковский. Страшный суд;
022. Василий Суриков. Исцеление слепорожденного;
023. Михаил Нестеров. Благовещение;
024. Питер Рубенс. Давид и Вирсавия;
025. Федор Достоевский. Христос во гробе;
026. Федор Достоевский - Воскрешение Лазаря;
027. Генрих Семирадский. Христос у Марфы и Марии;
028. Антонис Ван Дейк. Неверие Фомы;
029. Князь Константин Романов. Царь Иудейский;
030. Федор Достоевский. Бесы;
031. Федор Достоевский. Брак в Кане;
032. Иван Крамской. Христос в пустыне;
033. Микеланджело Буонарроти. Скрижали Завета;
034. Осип Мандельштам. Иосиф из Аримафеи;
035. Илья Репин. Иов и его друзья;
036. Сальвадор Дали. Тайная Вечеря;
037. Ингмар Бергман. Седьмая печать;
038. Уильям Фолкнер. Египетский плен;
039. Иван Бунин. Гробница Рахили;
040. Михаил Лермонтов. Пророк;
041. Альбрехт Дюрер. Христос среди учителей;
042. Винсент Ван Гог. Сеятель;
043. Гавриил Державин. Человек перед Богом;
044. Василий Поленов. Воскрешение дочери Иаира;
045. Василий Поленов. Христос и грешница;
046. Иван Айвазовский. Всемирный потоп;
047. Сандро Боттичелли. Поклонение волхвов;
048. Владимир Высоцкий. Песнь песней;
049. Данте Алигьери. Сошествие во Ад;
050. Огюст Роден. Мыслитель;
051. Николай Гумелёв. Блудный сын;
052. Марк Шагал. Изгнание из Рая;
053. Иоганн Себастьян Бах. Несение Креста;
054. Андрей Тарковский. Жертвоприношение;
055. Евгений Баратынский. Екклесиаст;
056. Николай Заболоцкий. Бегство в Египет;
057. Антуан де Сент-Экзюпери. За други своя;
058. Джотто ди Бондоне. Поцелуй Иуды;
059. Ироним Босх. Терновый Венец;
060. Афанасий Фет. Отче наш;
061. Марина Цветаева. Грешница;
062. Михаил Булгаков. Что есть Истина;
063. Нико Пиросмани. Агнец Божий;
064. Франсуа Вийон. Благоразумный разбойник;
065. Камиль Сен-Санс. Самсон и Далила;
066. Апостол Павел. Смерть-приобретение;
067. Иоганн Гёте. Книга Иова;
068. Людвиг ван Бетховен. Хлеб Жизни;
069. Публий Вергилий Марон. Поклонение пастухов;
070. О. Генри. Дары Волхвов;
071. Дионисий. Матерь Божия;
072. Фёдор Тютчев. Бесноватый отрок;
073. Фридрих Шиллер. Ода к Радости;
074. Шота Руставели. Любовь;
075. Вольфганг Амадей Моцарт. День Гнева;
076. Рембрандт ван Рейн. Святой Симеон;
077. Александр Полежаев. Христос и грешница;
078. Альбрехт Дюрер. Апокалипсис;
079. Поль Гоген. Борьба Иакова с Богом;
080. Сергей Прокофьев. Блудный Сын;
081. Тициан Вечеллио. Оплакивание Христа;
082. Джорж Гордон Байрон. Каин;
083. Франц Шуберт. Ave, Maria!;
084. Василий Перов. Христос в Гефсиманском саду;
085. Доменико эль Греко. Разделение риз;
086. Лариса Шепитько. Восхождение;
087. Джон Толкин. Армагеддон;
088. Александр Грибоедов. Давид и Голеаф;
089. Александр Пушкин. Горе имеем сердца!;
090. Николай Гоголь. Ревизор;
091. Ганс Христиан Андерсен. Будьте как дети;
092. Венедикт Ерофеев. Мерзость запустения;
093. Тенгиз Абуладзе. Покаяние;
094. Артюр Рембо. Исцеление расслабленного;
095. Максимилиан Волошин. Божий бич;
096. Александр Пушкин. Симон Волхв;
097. Псалмы Давида. Царь Давид;
098. Александр Грин. Вера, надежда, любовь;
099. Александр Куприн. Суламифь;
100. Николоз Бараташвили. Моя молитва;
101. Джоаккино Россини. Моисей и фараон;
102. Петр Чайковский. Царство небесное;
103. Андрей Тарковский. Возвращение блудного сына;
104. Ференц Лист. Христос;
105. Райнер Мария Рильке. Уход блудного сына;
106. Александр Блок. Се Жених Грядёт В Полуноще;
107. Якопо Тинторетто. Омовение ног;
108. Андрей Тарковский. Зеркало;
109. Павел Корин. Реквием;
110. Николай Ге. Распятие;
111. Паоло Веронезе. Пир в доме Левия;
112. Михаил Нестеров. Знамение;
113. Владислав Ходасевич. Притча о богаче и Лазаре;
114. Мел Гибсон. Страсти Христовы;
115. Александр Суворов. Хвалебная песнь Давида;
116. Виктор Попков. Жены-мироносицы;
117. Сергей Эйзенштейн. Навуходоносор;
118. Абулькасим Фирдоуси. Иосиф и жена Потифара;
119. Леонардо да Винчи. Кто Сия;
120. Лев Толстой. Мне отмщение, Аз воздам;
121. Лев Толстой. Дьявол;
122. Георг Гендль. Мессия;
123. Ян Вермеер. Христос у Марфы и Марии;
124. Уильям Блейк. Книга Иова;
125. Йозеф Гайдн. Сотворение мира;
126. Уильям Шекспир. Быть или не быть;
127. Сергей Параджанов. Тени забытых предков. Книга родства;
128. Диего Веласкес. Матерь Божья;
129. Акира Куросава. Смута;
130. Михаил Рощин. Суета сует;
131. Мигель де Сервантес. Мир;
132. Николай Лесков. Чающие движения воды;
133. Василий Жуковский. Несение Креста;
134. Антон Чехов. Отречение Петра;
135. Михаил Салтыков-Щедрин. Раскаяние Иуды;
136. Елизавета Кузьмина-Караваева. Руфь;
137 Иннокентий Смоктуновский - Быть!;
138. Василий Верещагин. Распятие;
139. Рюноскэ Акутагава. Муки ада;
140. Борис Раушенбах. Троица;
141. Илья Чавчавадзе. Апостол Стефан;
142. Булат Окуджава. Молитва;
143. Феликс Мендельсон. Илия;
144. Князь Игорь. Молитва страждущего;
145. Иван Тургенев. Отцы и дети;
146. Император Юстиниан. София;
147. Иван Гончаров. Грехопадение;
148. Оскар Уайльд. Из глубины;
149. Александр Островский. Грехопадение;
150. Иосиф Флавий. Иудейская война;
151. Алексей Толстой. Грешница;
152. Гюстав Флобер. Иродиада;
153. Владимир Соловьёв. Повесть об антихристе;
154. Блаженный Августин. Из глубины;
155. Марк Антокольский. Христос перед судом народа;
156. Модест Мусоргский. Царь Саул;
157. Игорь Стравинский. Плач Иеремии;
158. Патриарх Никон. Новый Иерусалим;
159. Владимир Набоков. Рождество;
160. Евгений Шварц. Обыкновенное чудо;
161. Константин Кинчев. Крещение;
162. Блез Паскаль. Знаю, в Кого уверовал;
163. Василий Розанов. Апокалипсис нашего времени;
164. Елизавета Фёдоровна Романова. Христос у Марфы и Марии;
165. Федор Шаляпин. Ныне отпущаеши;
166. Александр Пушкин. Блудный сын;
167. Сергей Танеев. Страшный суд;
168. Жан Расин. Есфирь;
169. Владимир Дудинцев. Белые одежды;
170. Пётр Чаадаев. Да приидет Царствие Твое;
171. Сёрен Кьеркегор. Жертвоприношение Авраама;
172. Царь Соломон. Экклезиаст;
173. Франсиско Гойя. Моление о Чаше;
174. Иоанн Дамаскин. Да воскреснет Бог!;
175. Николай Ярошенко. Всюду жизнь;
176. Мария Волконская. Господь решит окованныя;
177. Леонид Пантелеев. Верую!;
178. Клайв Стейплз Льюис. Спаситель;
179. Сергей Рахманинов. За други своя;
180. Алексей Хомяков. Церковь одна;
181. Архиепископ Лука Войно-Ясенецкий. Паси овец Моих;
182. Василий Шукшин. Покаяние;
183. Игорь Сикорский. На крыле храма;
184. Кузьма Петров-Водкин. Всадники Апокалипсиса;
185. Василий Великий. Шесть дней Творения;
186. Эжен Делакруа. Буря;
187. Евгений Замятин. Грехопадение;
188. Борис Кустодиев. Бич Божий;
189. Царь Константин и царица Елена. Место, где стояли ноги Его;
190. Микалоюс Чюрлёнис. Арка Ноя;
191. Михаил Врубель. Шестикрылый Серафим;
192. Пётр Вяземский. Любить. Молиться. Петь;
193. Микеланджело де Караваджо. Призвание апостола Матфея;
194. Роберт Шуман. Пир Валтасара;
195. Джером Дэвид Сэлинджер. Ловец человеков;
196. Иоганнес Брамс. Любовь;
197. Григорий Богослов. Рождество Христово;
198. Патриарх Илия II. Любовь;
199. Мария Юдина. Книга Товита;
200. Франц Кафка. Процесс;
201. Федерико Феллини. Дорога;
202. Федерико Феллини. Блудный сын;
203. Томас Манн. Иосиф и его братья;
204. Пабло Пикассо. Апокалипсис;
205. Михайло Ломоносов. Против Голиафа;
206. Кондратий Рылеев. Претерпевший до конца спасется;
207. Густав Малер. Воскресение;
208. Гектор Берлиоз. Детство Христа;
209. Владимир Фаворский. Книга Руфь;
210. Антонин Леопольд Дворжак. Стояла Мать скорбящая;
211. Альбер Камю. Первый человек;
212. Алексей Щусев. Вавилон;
213. Александр Витберг. Храм Христа Спасителя;
214. Сергий Радонежский. Троица;
215. Федерико Феллини. Мужчина и женщина;
216. Архип Куинджи. Христос в саду Гефсиманском;
217. Жан-Батист Мольер. Тартюф, или лицемер;
218. Гераклит Эфесский. Слово;
219. Джотто ди Бондоне. Матерь Господа моего;
220. Пророк Даниил. Книга пророка Даниила;
221. Антонио Вивальди. Иудифь;
222. Саша Чёрный. Даниил во львином рву;
223. Эдвард Мунк. Голгофа;
224. Клод Дебюсси. Блудный сын;
225. Генрик Ибсен. Когда мы, мёртвые, пробуждаемся;
226. Франческо Петрарка. Послание к Римлянам;
227. Эдвард Григ. Царь Славы;
228. Алексей Ремизов. Пляс Иродиады;
229. Лев Толстой. Война и мир;
230. Лука Синьорелли. Кончина века;
231. Валентин Серов. Слуга Авраама находит невесту Исааку;
232. Никола Пуссен. Великая Тайна Церкви;
233. Николай Некрасов. Сеятель;
234. Данте Габриэль Россетти. Се, раба Господня;
235. Ричард 1 Львиное Сердце. Прощение;
236. Эдуард Мане. Поругание Христа;
237. Дмитрий Мамин-Сибиряк. Плач Рахили;
238. Максим Грек. Несение Креста;
239. Пророк Исаия. Книга пророка Исаии;
240. Савва Мамонтов. Иосиф;
241. Герман Мелвилл. Знамение Ионы;
242. Эдгар Дега. Дочь Иеффая;
243. Донателло. Давид;
244. Анри Руссо. Грехопадение;
245. Алексей Кольцов. Блажен муж;
246. Рихард Штраус. Саломея;
247. Мауриций Готтлиб. День очищения;
248. Пьеро делла Франческа. Крест Господень;
249. Иннокентий Анненский. Притча о мытаре и фарисее;
250 Иван Крылов - Кто обитает в жилище Твоём;
251. Исаак Левитан. Над вечным покоем;
252. Федерико Гарсиа Лорка. Избиение младенцев;
253. Василий Кандинский. Всадники Апокалипсиса;
254. Анатолий Эфрос. Ни холоден, ни горяч;
255. Григор Нарекаци. Книга скорби;
256. Василий Тропинин. Птицы небесные;
257. Эрнест Хемингуэй. По ком звонит колокол;
258. Габриэль Гарсиа Маркес. Земля неприкаянных;
259. Уильям Холман Хант. Свет мира;
260. Николай Рубцов. Звезда полей;
261. Отец Александр Мень. Сын Человеческий;
262. Эрнест Хемингуэй. Бытие мира;
263. Андрей Платонов. Столпотворение;
264. Иоанн Златоуст. Иезавель;
265. Платон. Сотворение мира;
266. Томас Элиот. Поклонение волхвов;
267. Джон Донн. Врата смерти;
268. Михаил Глинка. Херувимская песнь;
269. Антонио Гауди. Святое семейство;
270. Александр Галич. Блаженны Изгнанный Правды Ради;
271. Александр Локшин. Реквием;
272. Сосо Церетели. Вход Господень в Иерусалим;
273. Редьярд Киплинг. Садовник;
274 Август Стринберг - На пути в Дамаск;
275. Дюк Эллингтон. В начале сотворил Бог;
276. Пророк Моисей. Пятидесятница;
277 Сэмюэл Морзе - Вот что творит Бог!;
278. Ганс Гольбейн Младший. Христос во гробе;
279. Френсис Скотт Фицджеральд. Соль Земли;
280. Анна Герман. Вера, Надежда, Любовь;
281. Пьер Абеляр. Да будет воля Твоя!;
282. Генрих Гейне. Лазарь;
283. Наталья Гончарова. Сбор винограда;
284. Алексей Саврасов. Воскресение;
285. Луи Армстронг. Сойди, Моисей!;
286. Курт Воннегут. Соляной столб;
287. Вассиан Патрикеев. Нестяжатели;
288. Эстебан Бартоломе Мурильо. Мария;
289. Арнольд Шёнберг. Лестница Иакова;
290. Александр Пушкин. Мера за меру;
291. Сергей Есенин. Блудный сын;
292. Фра Бартоломео. Имя Иисус;
293. Митрополит Филипп Московский. Хлеб насущный;
294. Константин Батюшков. Надежда;
295. Оливье Мессиан. Квартет на конец времени;
296. Сергей Бондарчук. Война и мир;
297. Борис Пастернак. Преображение Господне;
298. Леся Украинка. Одержимая;
299. Антон Брукнер. Тебя, Бога, хвалим;
300. Торквато Тассо. Несение креста;
301. Андрей Белый. Жена, облечённая в солнце;
302. Андрей Белый. Христос воскрес;
303. Константин Бальмонт. Благовещенье;
304. Кай Мунк и Карл Теодор Дрейер. Слово;
305. Тарас Шевченко. Псалмы Давида;
306. Мирра Лохвицкая. Плач Агари;
307. Фёдор Сологуб. Медный змий;
308. Льюис Кэрролл. Из уст младенцев;
309. Надежда Тэффи. Лотова жена;
310. Марк Туллий Цицерон. Призвание;
311. Гайто Газданов. Всадники Апокалипсиса;
312. Уильям Фолкнер. Авессалом, Авессалом!;
313. Рихард Вагнер. Тайная Вечерия;
314. Рихард Вагнер. Книга Иова;
315. Робер Брессон. Дух дышит, где хочет;
316. Василий Тредиаковский. Против Голиафа;
317. Андрей Воронихин. Создание церкви;
318. Уильям Тёрнер. Ангел, стоящий на солнце;
319. Альфред Шнитке. Бодрствуйте!;
320. Чарли Чаплин. Внутреннее Царство;
321. Чарльз Диккенс. Рождественская песнь;
322. Одри Хепберн. Рождество;
323. Фёдор Шехтель. Неопалимая Купина;
324. Федор Достоевский. Любите друг друга;
325. Фра Филиппо Липпи. Иоанн Креститель;
326. Николай Гоголь. Сын Человеческий;
327. Святитель Филарет Московский. Книга Иова;
328. Иван Пырьев. Братья Карамазовы;
329. Михаил Ульянов. Братья Карамазовы;
330. Бенджамин Бриттен. Военный реквием;
331. Гюстав Доре. Иисус Христос;
332. Федор Достоевский. Подросток;
333. Анри Матисс. Благовещение;
334. Николай Гоголь. Песнь песней;
335. Николай Гоголь. Светлое Воскресенье;
336. Боб Дилан. Веяние тихого ветра;
337. Юлия Рейтлингер. Друг Жениха;
338. Виктор Гюго. Милосердие;
339. Виктор Гюго. Отверженные;
340. Роберто Росселлини. За други своя;
341. Мазаччо. Чудо со статиром;
342. Николай Гоголь. Мёртвые Души;
343. Игнатий Брянчанинов. Плач инока;
344. Поль Сезанн. Мария Магдалина, или скорбь;
345. Ян Ван Эйк. Агнец Божий;
346. Эдвард Радзинский и Георгий Натансон. Еще раз про любовь;
347. Рей Бредбери. Рождество;
348. Вера Мандельштам. Молитва двоих;
349. Анри Волохонский. Под небом голубым;
350. Кассия Константинопольская. Грешница;
351. Эдит Пиаф. Грешница;
352. Георгий Товстоногов. Идиот;
353. Даниил Хармс. Суд Божий;
354. Юрий Норштейн. Шинель;
355. Элий Белютин. Не рыдай по мене, мати;
356. Уильям Шекспир. Книга премудрости;
357. Варлам Шаламов. Ад;
358. Аристарх Лентулов. Глас вопиющего в пустыне;
359. Адам Мицкевич. Молитва пилигрима;
360. Эльдар Рязанов. Берегись автомобиля;
361. Михаил Пришвин. Мирская чаша;
362. Протоиерей Сергий Булгаков. Друг жениха;
363. Юргис Балтрушайтис. Вифлеемская звезда;
364. Сельма Лагерлёф. Проповедь;
365. Гия Канчели. Жизнь без Рождества;
366. Астрид Линдгрен. Будьте как дети;
367. Александр Тышлер. Блудный сын;
368. Пётр Негош. Что есть человек;
369. Павел Флоренский. Столп и утверждение Истины;
370. Михаил Шолохов. Тихий Дону;
371. Джон Стейнбек. Гроздья гнева;
372. Георгий Данелия. Не горюй!;
373. Пер Лагерквист. Варавва;
374. Резо Чхеидзе. Отец солдата;
375. Франсуа Рене де Шатобриан. Гений христианства;
376. Александр Вампилов. Старший сын;
377. Братья Чернецовы. Проповедь Христа;
378. Вадим Сидур. Иов;
379. София Губайдулина. Аллилуйя;
380. Осип Бове. Всех скорбящих Радость;
381. Борис Васильев. Победоносец;
382. Василий Жуковский. Светлана;[/spoiler][spoiler="Отчет MediaInfo"]General
Complete name: H:\Передачи\Библейский сюжет\Abuladze_1_Pokayanie.avi
Format: AVI
Format/Info: Audio Video Interleave
File size: 266 MiB
Duration: 25mn 32s
Overall bit rate: 1 455 Kbps
Writing application: MEncoder SVN-r30881(20100311-gcc4.3.3)
Writing library: MPlayer

Video
ID: 0
Format: MPEG-4 Visual
Format profile: Advanced Simple@L5
Format settings, BVOP: 2
Format settings, QPel: No
Format settings, GMC: No warppoints
Format settings, Matrix: Default (H.263)
Codec ID: XVID
Codec ID/Hint: XviD
Duration: 25mn 32s
Bit rate: 1 315 Kbps
Width: 640 pixels
Height: 480 pixels
Display aspect ratio: 4:3
Frame rate: 25.000 fps
Color space: YUV
Chroma subsampling: 4:2:0
Bit depth: 8 bits
Scan type: Progressive
Compression mode: Lossy
Bits/(Pixel*Frame): 0.171
Stream size: 240 MiB (90%)
Writing library: XviD 1.2.1 (UTC 2008-12-04)

Audio
ID: 1
Format: MPEG Audio
Format version: Version 1
Format profile: Layer 3
Mode: Joint stereo
Mode extension: MS Stereo
Codec ID: 55
Codec ID/Hint: MP3
Duration: 25mn 32s
Bit rate mode: Constant
Bit rate: 128 Kbps
Channel count: 2 channels
Sampling rate: 44.1 KHz
Compression mode: Lossy
Delay relative to video: 40ms
Stream size: 23.4 MiB (9%)
Alignment: Aligned on interleaves
Interleave, duration: 26 ms (0.65 video frame)
Interleave, preload duration: 522 ms
Writing library: LAME3.98ЄЄЄЄЄЄЄЄЄЄЄЄ[/spoiler]
http://rutracker.org/forum/viewtopic.php?t=4605215
скрытый текст

Код:

[size=24]Буква в духе. Церковнославянская грамота[/size]

[img=right]http://i48.fastpic.ru/big/2012/1124/cd/c97ac1facb3aa49c1057964b9b020ccd.jpg[/img][b]Год выпуска[/b]: С 2012
[b]Страна[/b]: Россия
[b]Жанр[/b]: Лекции
[b]Продолжительность[/b]: 172х15 мин.
[b]Перевод[/b]: Не требуется
[b]Русские субтитры[/b]: нет
[b]Режиссер[/b]: ТК "Союз"

[b]Описание[/b]: Курс ведет Сергей Анатольевич Наумов, кандидат филологических наук

[b]Дополнительная информация[/b]: [color=red][size=24]По мере появления новых выпусков торрент будет обновляться![/size][/color]
[color=green][size=24]Торрент обновлен! Добавлен файл 172. Интонация чтения Апостола. Часть 4.
[/size][/color]
[b]Сэмпл[/b]: [url]http://multi-up.com/985309[/url]

[b]качество[/b]: SATRip
[b]формат[/b]: AVI
[b]Видео[/b]: XviD, 720х480, (4:3), ~650 kbps avg, 0.14 bit/pixel, 25 fps
[b]Аудио[/b]: 44.100 kHz, MPEG Layer 3, 2 ch, ~128.00 kbps avg[spoiler="Список выпусков/серий"]001. Введение. Часть 1;
002. Введение. Часть 2;
003. Кирилл и Мефодий;
004. Кирилл и Мефодий. Хроника событий;
005. Кирилл и Мефодий как творцы церковнославянского языка;
006. История азбуки;
007. Кириллица и глаголица;
008. Церковнославянский язык на Руси;
009. Второе южнославянское влияние;
010. Эпоха великих синтезов;
011. Грамматики и словари;
012. Реформы патриарха Никона;
013. Петр Первый и церковнославянский язык;
014. Перевод Библии в XIX веке. Часть 1;
015. Перевод Библии в XIX веке. Часть 2;
016. Церковнославянский язык в русском национальном языке;
017. Церковнославянский язык и русская ментальность. Часть 1;
018. Церковнославянский язык и русская ментальность. Часть 2;
019. Русская культура;
020. Ситуация в начале XX века;
021. Деятельность синодальной комиссии по исправлению богослужебных книг (1907-1917 гг);
022. Поместный собор Православной Российской Церкви (1917-1918гг);
023. Богослужебный язык и обновленчество;
024. Церковнославянский язык советской эпохи. Часть 1;
025. Церковнославянский язык советской эпохи. Часть 2;
026. Церковнославянский язык советской эпохи. Часть 3;
027. Церковнославянский язык советской эпохи. Часть 4;
028. Церковнославянский язык сегодня;
029. Церковнославянский язык у славян;
030. Куда пойти учиться;
031. Что почитать;
032. Общий обзор церковнословянской азбуки;
033. Буква Аз;
034. Буква Е;
035. Буква О;
036. Буква И;
037. Буквы У и Я;
038. Буквы для обозначения согласных. Часть 1;
039. Буквы для обозначения согласных. Часть 2;
040. Надстрочные знаки;
041. Острое ударение;
042. Титла;
043. Буквенная цифирь;
044. Знаки препинания;
045. Праздничные знаки;
046. Введение в историческую фонетику;
047. Закон открытого слога (часть 1);
048. Закон открытого слога (часть 2);
049. Происхождение славянских гласных;
050. Правило слогового сингармонизма;
051. Йотовая палатализация;
052. Имя существительное;
053. Типы склонения существительных;
054. Первое склонение;
055. Второе склонение;
056. Третье склонение;
057. Четвертое склонение;
058. Звательный падеж;
059. Местоимения (общий обзор);
060. Указательные местоимения;
061. И иже с ним;
062. Местоимения и артикль;
063. Склонение местоимений;
064. Имя прилагательное;
065. Склонение прилагательных;
066. Степени сравнения прилагательных. Субстантивация;
067. Числительное в старославянском языке;
068. Типы церковнославянских числительных;
069. Склонение числительных;
070. Основы Глагола;
071. Глагольные классы;
072. Обзор времен. Часть 1;
073. Обзор времен. Часть 2;
074. Обзор времен. Часть 3;
075. Настоящее время;
076. Аорист. Часть 1;
077. Аорист. Часть 2 (Быти);
078. Имперфект. Часть 1;
079. Имперфект. Часть 2;
080. Будущее время;
081. Перфектные времена;
082. Плюсквамперфект;
083. Причастие;
084. Действительные причастия настоящего времени. Часть 1;
085. Действительные причастия настоящего времени. Часть 2;
086. О сущих младенцах и сущих властях;
087. Действительные причастия прошедшего времени;
088. Полные и краткие действительные причастия прошедшего времени;
089. Эловые причастия;
090. Страдательные причастия настоящего времени;
091. Страдательные причастия прошедшего времени;
092. Сложное дополнение с причастием;
093. Дательный самостоятельный;
094. Длительные формы;
095. Обстоятельственные причастия;
096. Повелительное наклонение;
097. Желательное наклонение;
098. Сослагательное наклонение;
099. Двойственное число;
100. О наречии;
101. Образование наречий;
102. Значение наречий;
103. Категория состояния;
104. Предлоги;
105. Союзы. Общий обзор;
106. Союзы в примерах. Яко. Часть 1;
107. Союзы в примерах. Яко. Часть 2;
108. Союзы в примерах. Аще;
109. Союзы в примерах. Убо;
110. Союзы в примерах. Разное;
111. Частицы;
112. Междметия;
113. Введение. Акустика;
114. Анатомия речевого аппарата;
115. Артикуляционная классификация гласных;
116. Артикуляционная классификация согласных;
117. Звук и фонема;
118. Звук и фонема. Транскрипция;
119. От звука к букве;
120. Транскрипционные знаки. Часть 1;
121. Транскрипционные знаки. Часть 2;
122. Аканье в церковном и литературном произношении;
123. Иканье в церковном и литературном произношении;
124. Ыканье. Йотированные гласные;
125. Изменения по глухости и звонкости;
126. Твердость и мягкость;
127. Непроизносимые согласные;
128. Взрывное или щелевое «Г»;
129. Ангелы и аггелы;
130. Чтение буквы Щ;
131. Псалтырь или Псалтирь;
132. Транскрипция церковного и литературного произношения. Часть 1;
133. Транскрипция церковного и литературного произношения. Часть 2;
134. Транскрипция церковного и литературного произношения. Часть 3;
135. Транскрипция церковного и литературного произношения. Часть 4;
136. Транскрипция церковного и литературного произношения. Часть 5;
137. Транскрипция церковного и литературного произношения. Часть 6;
138. Транскрипция церковного и литературного произношения. Часть 7;
139. Транскрипция церковного и литературного произношения. Часть 8;
140. Транскрипция церковного и литературного произношения. Часть 9;
141. Транскрипция церковного и литературного произношения. Часть 10;
142. Пауза. Часть 1;
143. Пауза. Часть 2;
144. Синтагмы в литературном языке. Часть 1;
145. Синтагмы в литературном языке. Часть 2;
146. Синтагмы в церковнославянском языке. Часть 1;
147. Синтагмы в церковнославянском языке. Часть 2;
148. Синтагмы в церковнославянском языке. Часть 3;
149. Синтагмы в церковнославянском языке. Часть 4;
150. Синтагматическое членение псалма 50. Часть 1;
151. Синтагматическое членение псалма 50. Часть 2;
152. Синтагматическое членение псалма 50. Часть 3;
153. Синтагматическое членение псалма 50. Часть 4;
154. Синтагматическое членение Символа веры;
155. Непроективность синтаксических конструкций;
156. Непроективные конструкции в церковнославянском языке;
157. Церковнославянский язык в США;
158. Мелодика;
159. Интонационные конструкции в литературном языке. Часть 1;
160. Интонационные конструкции в литературном языке. Часть 2;
161. Интонационные конструкции в литературном языке. Часть 3;
162. Интонационные конструкции в примерах;
163. Несловесные ударения;
164. Интонация светская и церковная;
165. Псаломская погласица. Часть 1;
166. Псаломская погласица. Часть 2;
167. Псаломская погласица. Часть 3;
168. Псаломская погласица. Часть 4;
169. Интонация чтения Апостола. Часть 1;
170. Интонация чтения Апостола. Часть 2;
171. Интонация чтения Апостола. Часть 3;
172. Интонация чтения Апостола. Часть 4;[/spoiler][spoiler="MediaInfo"]General
Complete name: H:\Передачи\Буква в духе\010. Эпоха великих синтезов.avi
Format: AVI
Format/Info: Audio Video Interleave
File size: 102 MiB
Duration: 15mn 20s
Overall bit rate: 929 Kbps
Writing application: Lavf55.19.104

Video
ID: 0
Format: MPEG-4 Visual
Format profile: Simple@L1
Format settings, BVOP: No
Format settings, QPel: No
Format settings, GMC: No warppoints
Format settings, Matrix: Default (H.263)
Codec ID: XVID
Codec ID/Hint: XviD
Duration: 15mn 19s
Bit rate: 789 Kbps
Width: 720 pixels
Height: 480 pixels
Display aspect ratio: 4:3
Frame rate: 25.000 fps
Standard: NTSC
Color space: YUV
Chroma subsampling: 4:2:0
Bit depth: 8 bits
Scan type: Progressive
Compression mode: Lossy
Bits/(Pixel*Frame): 0.091
Stream size: 86.5 MiB (85%)
Writing library: Lavc55.39.100

Audio
ID: 1Format: MPEG Audio
Format version: Version 1
Format profile: Layer 3
Mode: Joint stereo
Mode extension: MS Stereo
Codec ID: 55
Codec ID/Hint: MP3
Duration: 15mn 20s
Bit rate mode: Constant
Bit rate: 128 Kbps
Channel count: 2 channels
Sampling rate: 44.1 KHz
Compression mode: Lossy
Stream size: 14.0 MiB (14%)
Alignment: Aligned on interleaves
Interleave, duration: 26 ms (0.65 video frame)
Interleave, preload duration: 130 ms[/spoiler][spoiler="Скриншоты"][url=http://fastpic.ru/view/61/2014/0627/f85aa21f6a943af506a32f42e6b2eee5.jpg.html][img]http://i61.fastpic.ru/thumb/2014/0627/e5/f85aa21f6a943af506a32f42e6b2eee5.jpeg[/img][/url] [url=http://fastpic.ru/view/61/2014/0627/a4c30351bd42de32e1310eb8e750cd5a.jpg.html][img]http://i61.fastpic.ru/thumb/2014/0627/5a/a4c30351bd42de32e1310eb8e750cd5a.jpeg[/img][/url] [url=http://fastpic.ru/view/61/2014/0627/26fe8572496d63f61f0a657149cfe0f7.jpg.html][img]http://i61.fastpic.ru/thumb/2014/0627/f7/26fe8572496d63f61f0a657149cfe0f7.jpeg[/img][/url][/spoiler]
http://rutracker.org/forum/viewtopic.php?t=3451874
скрытый текст

Код:

[size=24]Духовные размышления с Артемием Владимировым[/size]

[img=right]http://i68.fastpic.ru/big/2014/0715/95/c653fc21e1b08a86381e3d8e74f93a95.jpg[/img][b]Год выпуска[/b]: С 2011
[b]Страна[/b]: Россия
[b]Жанр[/b]: религиозная телепрограмма
[b]Продолжительность[/b]: 210х15 минут
[b]Перевод[/b]: Не требуется
[b]Русские субтитры[/b]: нет
[b]Режиссер[/b]: Союз ТВ

[b]Описание[/b]: Цикл передач посвящённых молитве.
[b]Ведущий[/b]: протоиерей Артемий Владимиров, настоятель храма Всех Святых (бывший Ново-Алексеевский женский монастырь) г. Москвы.
[b]Сэмпл[/b]: [url]http://multi-up.com/986347[/url]
[b]Эфир[/b]: чт. 06:00, пт. 21:30, вc. 23:15 (московское время).

[b]Качество[/b] : SATRip
[b]Формат[/b]: AVI
[b]Видео кодек[/b]: XviD
[b]Аудио кодек[/b]: MP3
[b]Видео[/b]: 720x480 (1.50:1), 25 fps, XviD build 46 ~1200 kbps avg, 0.14 bit/pixel
[b]Аудио[/b]: 44.100 kHz, MPEG Layer 3, 2 ch, ~128.00 kbps avg

[size=16][b][color=darkgreen]Спасибо всем, кто остаётся на раздаче![/color][/b][/size]

[size=16][b][color=red]Если есть желающие взять раздачу на себя, пишите в [url=http://pm.rutracker.org/forum/privmsg.php?mode=post&u=23851617]ЛС[/url].[/color][/b][/size][spoiler="Внимание! Раздача ведётся путём добавления новых выпусков"]Внимание! Раздача ведётся путём добавления новых выпусков; при каждом добавлении создаётся новый торрент. Чтобы начать докачку нового выпуска, пользователям необходимо сделать следующее:
(1) остановить скачивание,
(2) удалить старый торрент у себя из клиента (старые серии удалять не надо),
(3) скачать новый торрент и запустить его у себя в клиенте вместо старого, при этом указать клиенту путь в старую папку куда и должно происходить скачивание новых выпусков.

Ваш клиент при этом должен произвести хеширование (проверку) старой папки (если не производит сам - помогите ему сделать это). В результате он будет докачивать только те выпуски, которых у Вас ещё нет. Старые выпуски при этом не удаляются, а продолжают раздаваться!

Eсли Вы уже удалили старые выпуски, то предотвратить их повторную закачку можно, сняв галочки в соответствующих местах при запуске нового торрента. По возможности, желательно не удалять старые выпуски как можно дольше, чтобы релизёр не только продолжал раздавать старые выпуски, но и смог сконцентрироваться на новых.[/spoiler][spoiler="Скриншоты"][url=http://fastpic.ru/view/66/2014/0714/1673f4314f12598a61ad26961472fc63.jpg.html][img]http://i66.fastpic.ru/thumb/2014/0714/63/1673f4314f12598a61ad26961472fc63.jpeg[/img][/url] [url=http://fastpic.ru/view/66/2014/0714/276d7ecc8a9a86ae1e04eb8bfc2f1ebc.jpg.html][img]http://i66.fastpic.ru/thumb/2014/0714/bc/276d7ecc8a9a86ae1e04eb8bfc2f1ebc.jpeg[/img][/url] [url=http://fastpic.ru/view/66/2014/0714/2c0b3bd38a30d6a52f04bfbda7866917.jpg.html][img]http://i66.fastpic.ru/thumb/2014/0714/17/2c0b3bd38a30d6a52f04bfbda7866917.jpeg[/img][/url][/spoiler][spoiler="Отчет MediaInfo"]General
Complete name: H:\Богословие\Современность (XX-XXIвв.)\Видео\Протоиерей Артемий Владимиров\Духовные размышления с Артемием Владимировым\001.Duhovnye_razmyshleniya_s_Artemiem_Vladimirovym(07.01.2011).avi
Format: AVI
Format/Info: Audio Video Interleave
File size: 132 MiB
Duration: 13mn 43s
Overall bit rate: 1 342 Kbps
Writing application: Lavf51.12.1

Video
ID: 0
Format: xvid
Codec ID: xvid
Duration: 13mn 43s
Bit rate: 1 201 Kbps
Width: 720 pixels
Height: 480 pixels
Display aspect ratio: 3:2
Frame rate: 25.000 fps
Standard: NTSC
Bits/(Pixel*Frame): 0.139
Stream size: 118 MiB (90%)

Audio
ID: 1
Format: MPEG Audio
Format version: Version 1
Format profile: Layer 3
Mode: Joint stereo
Mode extension: MS Stereo
Codec ID: 55
Codec ID/Hint: MP3
Duration: 13mn 43s
Bit rate mode: Constant
Bit rate: 128 Kbps
Channel count: 2 channels
Sampling rate: 44.1 KHz
Compression mode: Lossy
Stream size: 12.6 MiB (10%)
Alignment: Aligned on interleaves
Interleave, duration: 26 ms (0.65 video frame)[/spoiler][size=16][b][color=red]Торрент обновлен! Добавлен выпуск от 12 декабря.[/color][/b][/size]
http://rutracker.org/forum/viewtopic.php?t=4258043
скрытый текст

Код:

[size=24]Корепанов К.В. - Читаем Ветхий Завет [2009-2011 г., православная телепередача, SATRip][/size]

[img=right]http://i31.fastpic.ru/big/2011/1206/e3/a4d27e4a172a03ecfae420de69bf12e3.jpg[/img][b]Год выпуска[/b]: 2009-2011
[b]Страна[/b]: Россия
[b]Жанр[/b]: Лекции
[b]Продолжительность[/b]: 58:19:55
[b]Перевод[/b]: Не требуется
[b]Русские субтитры[/b]: нет

[b]Режиссер[/b]: Православный телеканал "Союз"

[b]Описание[/b]: Программа Константина Владиленовича Корепанова - преподавателя высших миссионерских курсов в г. Екатеринбурге - посвящена подробному разбору книг Ветхого Завета. Передача выходила в эфире телеканала «Союз» в 2009-2011 годах. В ней глубоко раскрываются образы и события из корпуса книг Ветхого Завета.

[b]Дополнительно[/b]: В раздаче выложены все выпуски программы (132шт.), представляющие собой 129 видеофайла: файл "019.Vethyi_Zavet.Kniga_Levit.Vethozavetnoe_bogosluzhenie.Part-1,2(04,.05.01.10)" - это два выпуска, а "021.Vethyi_Zavet.Vstuplenie_v_Zemlyu_Obetovannuyu.Part-2(12.01.10)" - три.
[b]P.S. По замечанию юзера Vikgos были добавлены два недостающих выпуска ("030.Vethyi_Zavet.Stroitelstvo_Hrama.Part-1(15.02.10)" и "100.Vethyi_Zavet.Kniga_Ekklesiasta.Part-4(12.10.10)") и удален файл "099.Vethyi_Zavet.Kniga_premudrosti_Solomona.Part-4(16.11.10)", затесавшийся туда по ошибке.
[color=red]Таким образом, тем, кто уже скачал прошлый торрент, придется удалить все выпуски передачи с №029 и скачать все заново.[/color][/b]

[b]Качество[/b]: SATRip
[b]Формат[/b]: AVI
[b]Видео кодек[/b]: XviD
[b]Аудио кодек[/b]: MP3
[b]Видео[/b]: 720x576 (1.50:1), 25 fps, XviD build 46 ~1200 kbps avg, 0.14 bit/pixel
[b]Видео[/b]: 720x480 (1.50:1), 25 fps, XviD build 46 ~1199 kbps avg, 0.14 bit/pixel
[b]Аудио[/b]: 44.100 kHz, MPEG Layer 3, 2 ch, ~128.00 kbps avg[spoiler="Скриншоты"][url=http://fastpic.ru/view/48/2012/1120/63a08fbbdc57a2b468b4384c759b15b4.jpg.html][img]http://i48.fastpic.ru/thumb/2012/1120/b4/63a08fbbdc57a2b468b4384c759b15b4.jpeg[/img][/url] [url=http://fastpic.ru/view/48/2012/1120/d0a4880f9879cbcf20248f1383df10d7.jpg.html][img]http://i48.fastpic.ru/thumb/2012/1120/d7/d0a4880f9879cbcf20248f1383df10d7.jpeg[/img][/url]
[url=http://fastpic.ru/view/48/2012/1120/63a08fbbdc57a2b468b4384c759b15b4.jpg.html][img]http://i48.fastpic.ru/thumb/2012/1120/b4/63a08fbbdc57a2b468b4384c759b15b4.jpeg[/img][/url]
[url=http://fastpic.ru/view/48/2012/1120/d0a4880f9879cbcf20248f1383df10d7.jpg.html][img]http://i48.fastpic.ru/thumb/2012/1120/d7/d0a4880f9879cbcf20248f1383df10d7.jpeg[/img][/url]

[url=http://fastpic.ru/view/48/2013/0419/ac5c93d4438a6f52e263ef01f9ef08f3.jpg.html][img]http://i48.fastpic.ru/thumb/2013/0419/f3/ac5c93d4438a6f52e263ef01f9ef08f3.jpeg[/img][/url] [url=http://fastpic.ru/view/48/2013/0419/e10d130707c6c2c79c4c9b98219a08c2.jpg.html][img]http://i48.fastpic.ru/thumb/2013/0419/c2/e10d130707c6c2c79c4c9b98219a08c2.jpeg[/img][/url] [url=http://fastpic.ru/view/48/2013/0419/40042f8148873f0177166269a3cd9027.jpg.html][img]http://i48.fastpic.ru/thumb/2013/0419/27/40042f8148873f0177166269a3cd9027.jpeg[/img][/url][/spoiler]

_________________
Все мои категорические утверждения неверны, включая и это


Последний раз редактировалось: Natalie_Nezh (2015-12-22 18:52), всего редактировалось 1 раз
[Профиль]  [ЛС] 

Natalie_Nezh

Стаж: 7 лет 6 месяцев

Сообщений: 9

Откуда: Кёнигсберг

Russia

post 22-Дек-2015 18:50 (спустя 5 минут)

[Цитировать] 

Продолжение...




http://rutracker.org/forum/viewtopic.php?t=4757708
скрытый текст

Код:

[size=24]Нравственное богословие с Корепановым Константином Владиленовичем[/size]

[img=right]http://i63.fastpic.ru/big/2014/0607/78/08faa311b530b367ef560633cf3f9978.jpg[/img][b]Дата/Год выпуска[/b]: 2014
[b]Страна[/b]: Россия
[b]Продолжительность[/b]: 86x30мин.
[b]Перевод[/b]: Не требуется
[b]Режиссер[/b]: Православный телеканал "Союз"
[b]Жанр[/b]: Лекции
[b]Телеканал[/b]: Православный телеканал "Союз"

[b]Описание[/b]: Задачей курса "Нравственное богословие" является всестороннее изучение человека как носителя трех начал - природного, разумного и Божественного; рассмотрение его мировоззрения и процессов, происходящих в его внутренне мире, а также взаимосвязь его мировоззрения и реальной жизни...

[b]Доп. информация[/b]: Автор и ведущий - Константин Корепанов, преподаватель Высших миссионерских курсов в г. Екатеринбурге.
Глубокие богословские познания, широчайший кругозор и несомненный талант рассказчика и проповедника позволяют автору увлечь практически любого слушателя, хоть немного интересующегося религиозными вопросами, даже независимо от его вероисповедания.
[color=red][size=24]По мере появления новых выпусков торрент будет обновляться![/size][/color]
[size=24][color=green]Торрент обновлён! Добавлен файл 086.Чужая собственностA.
[/color][/size]
[b]Сэмпл[/b]: [url]http://multi-up.com/979048[/url]

[b]качество[/b]: SATRip
[b]формат[/b]: AVI
[b]Видео[/b]: 720x480 (1.50:1), 25 fps, XviD build 46 ~787 kbps avg, 0.14 bit/pixel
[b]Аудио[/b]: 44.100 kHz, MPEG Layer 3, 2 ch, ~128.00 kbps avg[spoiler="Список выпусков/серий"]001.Введение;
002.Нравственный релятивизм и соборность;
003.Универсальность нравственного закона;
004.Категорический императив Канта;
005.Универсальность нравственного закона с точки зрения библейского мировоззрения;
006.Богооткровенный характер нравственных правил;
007.Золотое правило нравственности;
008.Нравственность и мораль;
009.Нравственность и правовые нормы;
010.Мотивы поступков;
011.Мотивы поступков. Часть 2;
012.Идолы и идеалы;
013.Значение мечты в жизни человека;
014.Цели человеческого бытия;
015.Отношение к Богу по свидетельству Священного Писания. Свидетельство книги Второзаконие;
016.Отношение к Богу по свидетельству Священного Писания. Жертва;
017.Отношение к Богу по свидетельству Священного Писания. Вера;
018.Первая заповедь Десятословия;
019.Упование на Бога;
020.Ещё раз о вере;
021.Вера – что Христос есть Спаситель;
022.Верую Ему как Царю и Богу;
023.Начало премудрости - страх Господень;
024.Любовь к Богу по священному Писанию. Заповеди;
025.Любовь к Богу по священному Писанию. Ступени;
026.Любовь к Богу как любовь;
027.Не сотвори себе кумира;
028.Отношение к иконам;
029.Идолопоклонство древнего мира;
030.Идолы и кумиры;
031.БезОбразная молитва как важный элемент духовной жизни;
032.Третья заповедь Божия;
033.Имя Божие;
034.Божественная служба;
035.Молитвенное произнесение имени Божьего;
036.О слове клятвенном;
037.Почитание субботнего дня. Часть 1;
038.Почитание субботнего дня. Часть 2;
039.Воскресение Иисуса Христа;
040.Евхаристическая жизнь в общине;
041.Понятие о догмате искупления;
042.Свидетельство священного писания об искуплении;
043.Юридическая и нравственная теория искупления;
044.Законничество как искажение духовно-нравственной жизни. Часть 1;
045.Законничество как искажение духовно-нравственной жизни. Часть 2;
046.Святаго Духа. Плоды Духа;
047.Истина в контексте нравственности;
048.Столп и утверждение истины;
049.Грех в Церкви;
050.Грех против Церкви;
051.Ложь;
052.Ереси и секты;
053.Запретный плод;
054.Отношение к людям на основании книги Второзакония;
055.Отношение к людям на основании книги Притчей. Часть 1;
056.Отношение к людям на основании книги Притчей. Часть 2;
057.Долг и служение как основные нравственные принципы;
058.Служение как практическое выражение христианской жизни;
059.Отношение к родителям;
060.Ещё раз о воспитании детей по книге Притч;
061.Воспитание детей по посланиям Апостола Павла;
062.Отцовство;
063.Не убий;
064.Священное Писание об убийстве;
065.Прилоги убийства - гнев и раздражение;
066.Осуждение и нелюбовь как метафизическое убийство. Часть 1;
067.Осуждение и нелюбовь как метафизическое убийство. Часть 2;
068.Война как бедствие;
069.Война как область героического;
070.Милосердие;
071.Милосердие добрых дел;
072.Милосердие как исполнение шестой заповеди;
073.Кротость как особое состояние духа;
074.Седьмая заповедь;
075.Мужчина;
076.Женщина в библейской традиции. Часть 1;
077.Женщина в библейской традиции. Часть 2;
078.Брак по учению Церкви. Часть 1;
079.Брак по учению Церкви. Часть 2;
080.Брак как малая Церковь;
081.Эволюция семьи;
082.Аскеза в семье;
083.Рождение детей;
084.Монашество как иной путь собирания себя в любви;
085.Не укради;
086.Чужая собственность;[/spoiler][spoiler="MediaInfo"][pre]General
Complete name: H:\Богословие\Современность (XX-XXIвв.)\Видео\Профессор К.В.Корепанов\Нравственное богословие\003.Универсальность нравственного закона.avi
Format: AVI
Format/Info: Audio Video Interleave
File size: 166 MiB
Duration: 29mn 49s
Overall bit rate: 779 Kbps
Writing application: Lavf55.19.104
Writing library: VirtualDub build 32839/release

Video
ID: 0
Format: MPEG-4 Visual
Format profile: Simple@L1
Format settings, BVOP: No
Format settings, QPel: No
Format settings, GMC: No warppoints
Format settings, Matrix: Default (H.263)
Codec ID: XVID
Codec ID/Hint: XviD
Duration: 29mn 49s
Bit rate: 641 Kbps
Width: 720 pixels
Height: 480 pixels
Display aspect ratio: 4:3
Frame rate: 25.000 fps
Standard: NTSC
Color space: YUV
Chroma subsampling: 4:2:0
Bit depth: 8 bits
Scan type: Progressive
Compression mode: Lossy
Bits/(Pixel*Frame): 0.074
Stream size: 137 MiB (82%)
Writing library: Lavc55.39.100

Audio
ID: 1
Format: MPEG Audio
Format version: Version 1
Format profile: Layer 3
Mode: Joint stereo
Mode extension: MS Stereo
Codec ID: 55
Codec ID/Hint: MP3
Duration: 29mn 49s
Bit rate mode: Constant
Bit rate: 128 Kbps
Channel count: 2 channels
Sampling rate: 44.1 KHz
Compression mode: Lossy
Stream size: 27.3 MiB (16%)
Alignment: Split accross interleaves
Interleave, duration: 40 ms (1.00 video frame)
Interleave, preload duration: 500 ms
Writing library: LAME3.98.2[/pre][/spoiler][spoiler="Скриншоты"][url=http://fastpic.ru/view/61/2014/0608/ea13072cfb98670844536b87c0ca4c27.jpg.html][img]http://i61.fastpic.ru/thumb/2014/0608/27/ea13072cfb98670844536b87c0ca4c27.jpeg[/img][/url] [url=http://fastpic.ru/view/61/2014/0608/2f70563c443c5f4a160431f99e581991.jpg.html][img]http://i61.fastpic.ru/thumb/2014/0608/91/2f70563c443c5f4a160431f99e581991.jpeg[/img][/url] [url=http://fastpic.ru/view/61/2014/0608/f8dc3c3449ab73dc1adf32a122c34ad5.jpg.html][img]http://i61.fastpic.ru/thumb/2014/0608/d5/f8dc3c3449ab73dc1adf32a122c34ad5.jpeg[/img][/url][/spoiler]
http://rutracker.org/forum/viewtopic.php?t=4760440
скрытый текст

Код:

[size=24]Читаем Добротолюбие. Лекции К.В. Корепанова[/size]

[img=right]http://i62.fastpic.ru/big/2014/0611/fa/eac86fcfb3983821f4f5c1073ee237fa.jpg[/img][b]Дата/Год выпуска[/b]: 2014
[b]Страна[/b]: Россия
[b]Жанр[/b]: Лекции
[b]Продолжительность[/b]: 85х30минут
[b]Перевод[/b]: Не требуется
[b]Режиссер[/b]: Православный телеканал "Союз"

[b]Телеканал[/b]: Православный телеканал "Союз"
[b]Описание[/b]: Путешествие по страницам самой великой книги о духовной жизни - Добротолюбию.

[b]Доп. информация[/b]: Автор и ведущий - Константин Корепанов, преподаватель Высших миссионерских курсов в г. Екатеринбурге.

Глубокие богословские познания, широчайший кругозор и несомненный талант рассказчика и проповедника позволяют автору увлечь практически любого слушателя, хоть немного интересующегося религиозными вопросами, даже независимо от его вероисповедания.
[color=red][size=24]По мере появления новых выпусков торрент будет обновляться![/size][/color]
[color=green][size=22]Торрент обновлен! Добавлен файл 085.Макарий Великий. Смысл умаления благодати.
[/size][/color]
[b]Сэмпл[/b]: [url]http://multi-up.com/979833[/url]

[b]качество[/b]: SATRip
[b]формат[/b]: AVI
[b]Видео[/b]: 720x480 (1.50:1), 25 fps, XviD build 46 ~586 kbps avg, 0.14 bit/pixel
[b]Аудио[/b]: 44.100 kHz, MPEG Layer 3, 2 ch, ~128.00 kbps avg[spoiler="Список выпусков/серий"]001.Духовная традиция Апостольского века;
002.Два пути и труды мужей апостольских;
003.Появление монашества. Антоний Великий;
004.Формы организации монашеской жизни;
005.Аскетическая жизнь Египетской пустыни;
006.Аскетическая жизнь в Малой Азии;
007.Аскетическая жизнь в Сирии. Ефрем Сирин;
008.Роль монашества в Древней Церкви;
009.История сборника 'Добротолюбие';
010.Жизнь прп. Паисия Величковского;
011.Труды прп. Паисия Величковского;
012.Житие прп. Антония Великого;
013.Наставления прп. Антония Великого. Часть 1;
014.Наставления прп. Антония Великого. Часть 2;
015.Антоний Великий. Попечение о душе;
016.Антоний Великий. Испытывание себя;
017.Антоний Великий. Стяжание Святаго Духа;
018.Антоний Великий. Тело человеческое;
019.Антоний Великий. Экономия слов об утруждении тела;
020.Антоний Великий. Тело человеческое;
021.Антоний Великий. Домостроительство спасения;
022.Антоний Великий. Призывание к молитве. Часть 1;
023.Антоний Великий. Призывание к молитве. Часть 2;
024.Антоний Великий. О сокрушении. Часть 1;
025.Антоний Великий. О сокрушении. Часть 2;
026.Антоний Великий. О бесовских искушениях;
027.Антоний Великий. Об «умном человеке». Часть 1;
028.Антоний Великий. Об «умном человеке». Часть 2;
029.Антоний Великий. О хранении языка;
030.Антоний Великий. Об «умном человеке». Часть 3;
031.Антоний Великий. Об истинном образовании. Часть 1;
032.Антоний Великий. Об истинном образовании. Часть 2;
033.Антоний Великий. Исполнение воли Божией;
034.Антоний Великий. Подлинная человечность;
035.Антоний Великий. Окаменевшие умом;
036.Антоний Великий. Не суди;
037.Антоний Великий. Исполнение воли Божией;
038.Антоний Великий. Грех и падение;
039.Антоний Великий. Страсти и свобода человека;
040.Антоний Великий. Слово о Боге и благодарении;
041.Антоний Великий. Принцип отношения к немощам жизни;
042.Антоний Великий. Что делать, чтобы спастись;
043.Антоний Великий. Устав монашеской жизни;
044.Антоний Великий. Молитва за ближнего;
045.Антоний Великий. Еще раз об осуждении;
046.Антоний Великий. Рассудительное послушание;
047.Антоний Великий. Видения святого отца;
048.Антоний Великий. Познание горнего мира;
049.Антоний Великий. Отношение к ближнему;
050.Житие Макария Великого;
051.Макарий Великий. Светлое первобытное состояние;
052.Макарий Великий. Мрачное состояние падшего;
053.Макарий Великий. Сохранение воли к добру;
054.Макарий Великий. Исцеление души;
055.Макарий Великий. Рождение свыше;
056.Макарий Великий. Начало решимости. Часть 1;
057.Макарий Великий. Начало решимости. Часть 2;
058.Макарий Великий. Необходимость обожения;
059.Макарий Великий. Долготерпение Божие;
060.Макарий Великий. Брань с сатаной;
061.Макарий Великий. Причины колебаний в духовной жизни. Часть 1;
062.Макарий Великий. Причины колебаний в духовной жизни. Часть 2;
063.Макарий Великий. Возлюбить всем сердцем;
064.Макарий Великий. Стяжание Святаго Духа;
065.Макарий Великий. Промыслительные действия благодати. Часть 1;
066.Макарий Великий. Промыслительные действия благодати. Часть 2;
067.Макарий Великий. Промыслительные действия благодати. Часть 3;
068.Макарий Великий. Понуждение себя к добру;
069.Макарий Великий. Понуждение себя к молитве;
070.Макарий Великий. Два вида брани;
071.Макарий Великий. Власть тьмы;
072.Макарий Великий. Разумное Око души;
073.Макарий Великий. Искание Бога;
074.Макарий Великий. Цепь страстей;
075.Макарий Великий. Слово о молитве. Часть 1;
076.Макарий Великий. Слово о молитве. Часть 2;
077.Макарий Великий. Червоточина внутри человека;
078. Макарий Великий. Истинная борьба с грехом;
079.Макарий Великий. О бесплодии души;
080.Макарий Великий. О стяжании Святого Духа;
081.Макарий Великий. Плоды Святого Духа. Часть 1;
082.Макарий Великий. Плоды Святого Духа. Часть 2;
083.Макарий Великий. Благодать и червоточина;
084.Макарий Великий. Возрастание человека в благодати;
085.Макарий Великий. Смысл умаления благодати;[/spoiler][spoiler="MediaInfo"][pre]General
Complete name: H:\Богословие\Современность (XX-XXIвв.)\Видео\Профессор К.В.Корепанов\Читаем Добротолюбие\001.Духовная традиция Апостольского века.avi
Format: AVI
Format/Info: Audio Video Interleave
File size: 148 MiB
Duration: 28mn 35s
Overall bit rate: 724 Kbps
Writing application: Lavf55.19.104
Writing library: VirtualDub build 32839/release

Video
ID: 0
Format: MPEG-4 Visual
Format profile: Simple@L1
Format settings, BVOP: No
Format settings, QPel: No
Format settings, GMC: No warppoints
Format settings, Matrix: Default (H.263)
Codec ID: XVID
Codec ID/Hint: XviD
Duration: 28mn 35s
Bit rate: 586 Kbps
Width: 720 pixels
Height: 480 pixels
Display aspect ratio: 4:3
Frame rate: 25.000 fps
Standard: NTSC
Color space: YUV
Chroma subsampling: 4:2:0
Bit depth: 8 bits
Scan type: Progressive
Compression mode: Lossy
Bits/(Pixel*Frame): 0.068
Stream size: 120 MiB (81%)
Writing library: Lavc55.39.100

Audio
ID: 1
Format: MPEG Audio
Format version: Version 1
Format profile: Layer 3
Mode: Joint stereo
Mode extension: MS Stereo
Codec ID: 55
Codec ID/Hint: MP3
Duration: 28mn 35s
Bit rate mode: Constant
Bit rate: 128 Kbps
Channel count: 2 channels
Sampling rate: 44.1 KHz
Compression mode: Lossy
Stream size: 26.2 MiB (18%)
Alignment: Split accross interleaves
Interleave, duration: 40 ms (1.00 video frame)
Interleave, preload duration: 500 ms[/pre][/spoiler][spoiler="Скриншоты"][url=http://fastpic.ru/view/62/2014/0612/46d810ad2e1ceea3fa3419a6d53200e0.jpg.html][img]http://i62.fastpic.ru/thumb/2014/0612/e0/46d810ad2e1ceea3fa3419a6d53200e0.jpeg[/img][/url] [url=http://fastpic.ru/view/62/2014/0612/289e81d04552e8874fda11026818b559.jpg.html][img]http://i62.fastpic.ru/thumb/2014/0612/59/289e81d04552e8874fda11026818b559.jpeg[/img][/url] [url=http://fastpic.ru/view/62/2014/0612/572a84a72316a37ed1add329c3421b87.jpg.html][img]http://i62.fastpic.ru/thumb/2014/0612/87/572a84a72316a37ed1add329c3421b87.jpeg[/img][/url][/spoiler]
http://rutracker.org/forum/viewtopic.php?t=4851316
скрытый текст

Код:

[size=24]Шишкина Школа. Русский язык[/size]

[img=right]http://i68.fastpic.ru/big/2014/1022/d3/60adfbcdda3990faeb89b738197f80d3.jpg[/img][b]Страна[/b]: Россия
[b]Тематика[/b]: Передача для детей
[b]Тип раздаваемого материала[/b]: Видеоурок
[b]Продолжительность[/b]: 08:36:33
[b]Год выпуска[/b]: 2010

[b]Язык[/b]: Русский
[b]Перевод[/b]: Отсутствует

[b]Описание[/b]: Цикл образовательных программ для детей дошкольного возраста.
Зачем изучать язык, который мы, казалось бы, и так знаем? На этот вопрос ответит на уроках Василиса, учительница русского языка. Оказывается, узнавать родной язык очень интересно! А начинается он с букв — у каждой свой характер, свой нрав. Удивительные истории о словах-перевёртышах и словах-близнецах ждут тех, кто усвоит азбуку. Уроки русского языка для малышей в лесной школе всегда проходят в игровой форме, скучно на них не бывает!

[b]Доп. информация[/b]: Видеоуроки русского языка для детей могут быть использованы не только для семейного просмотра, но и для показа на занятиях в дошкольных учреждениях.

[b]Качество[/b]: SATRip
[b]Формат[/b]: AVI
[b]Видео кодек[/b]: XviD
[b]Аудио кодек[/b]: MP3
[b]Видео[/b]: XviD, 720x544, (4:3), ~1360kbps avg, 0.14 bit/pixel, 25 fps
[b]Аудио[/b]: 48.100 kHz, MPEG Layer 3, 2 ch, 106.00 kbps avg[spoiler="Скриншоты"][url=http://fastpic.ru/view/64/2014/1022/ce147c4fe276fdb1c462de1a803a89c7.jpg.html][img]http://i64.fastpic.ru/thumb/2014/1022/c7/ce147c4fe276fdb1c462de1a803a89c7.jpeg[/img][/url] [url=http://fastpic.ru/view/64/2014/1022/bb1a4e3c48e0c337b9e47a2078656108.jpg.html][img]http://i64.fastpic.ru/thumb/2014/1022/08/bb1a4e3c48e0c337b9e47a2078656108.jpeg[/img][/url] [url=http://fastpic.ru/view/64/2014/1022/f5823a3ff2a84638a05ba3c81b01564d.jpg.html][img]http://i64.fastpic.ru/thumb/2014/1022/4d/f5823a3ff2a84638a05ba3c81b01564d.jpeg[/img][/url][/spoiler][spoiler="Список серий"]01. Буква А;
02. Буква О;
03. Буква У;
04. Буква И;
05. Буква Ы;
06. Буква К;
07. Буква Н;
08. Буква С;
09. Буква Р;
10. Буква Т;
11. Буква В;
12. Буква Е;
13. Буква Ж;
14. Буква Ё;
15. Буква П;
16. Буква М;
17.Буква З. Ударение;
18. Буква Д. Однокоренные слова;
19. Буква Б;
20. Буква Я;
21. Буква Ц;
22. Буква Г;
23. Буква Ш;
24. Буква Ф;
25. Буква Х;
26. Буква Ь;
27. Буква Ъ;
28. Буква Ч;
29. Буква Ю;
30. Буква Й;
31. Буква Щ;
32. Буква Э;
33. Буква Л;
34. Омонимы;
35. Суффиксы;
36. Приставки;
37. Антонимы и синонимы;
38. Знаки препинания;
39. Как Зубок буквы забыл;
40. Азбука;
41. Повторение азбуки (1 часть);
42. Повторение азбуки (2 часть);
43. Повторение азбуки (3 часть);
44. Звонкие и глухие согласные;
45. Слоги (1 часть);
46. Слоги (2 часть);
47. Игра в прятки;
48. Ударение (1 часть);
49. Ударение (2 часть). Безударные гласные;
50. Мягкий и твёрдый знаки;
51. Парные и непарные согласные;
52. Гласные-сестрички;
53. Твёрдые и мягкие звуки;
54. Упрямые согласные;
55. Правописание ЖИ-ШИ и ЧА-ЩА;
56. ЧУ и ЩУ. Пиши правильно;
57. Написание ЧК и ЧН;
58. Непроизносимые согласные;
59. Имя собственное;
60. Одушевленное и неодушевленное;
61. Имя существительное как часть речи;
62. Единственное и множественное число имён существительных;
63. Сложные слова в русском языке;
64. Существительные мужского и женского рода;
65. Существительные среднего рода. Общий род;
66. Имя прилагательное как часть речи;
67. Местоимения в русском языке;
68. Притяжательные местоимения и прилагательные;
69. Глагол. Род глагола;
70. Времена глаголов в русском языке;
71. Совершенный и несовершенный вид глаголов;
72. Наклонение глагола. Глаголы-мечтатели и глаголы-повелители;
73. Наречия в русском языке;
74. Имя числительное;
75. Предлог как часть речи;
76. Предложение. Построение предложения;[/spoiler][spoiler="Отчет MediaInfo"]General
Complete name: F:\Детям\Передачи\ТК Союз\Шишкин Лес\Шишкина Школа\Русский язык\06. Буква К.avi
Format: AVI
Format/Info: Audio Video Interleave
File size: 65.0 MiB
Duration: 6mn 20s
Overall bit rate mode: Variable
Overall bit rate: 1 433 Kbps
Writing application: VirtualDubMod 1.5.4.1 (build 2178/release)
Writing library: VirtualDubMod build 2178/release

Video
ID: 0
Format: MPEG-4 Visual
Format settings, BVOP: 1
Format settings, QPel: No
Format settings, GMC: No warppoints
Format settings, Matrix: Default (H.263)
Muxing mode: Packed bitstream
Codec ID: DX50
Codec ID/Hint: DivX 5
Duration: 6mn 20s
Bit rate: 1 313 Kbps
Width: 720 pixels
Height: 544 pixels
Display aspect ratio: 4:3
Frame rate: 25.000 fps
Color space: YUV
Chroma subsampling: 4:2:0
Bit depth: 8 bits
Scan type: Progressive
Compression mode: Lossy
Bits/(Pixel*Frame): 0.134
Stream size: 59.6 MiB (92%)
Writing library: DivX 6.8.5 (UTC 2009-08-20)

Audio
ID: 1
Format: MPEG Audio
Format version: Version 1
Format profile: Layer 3
Mode: Joint stereo
Mode extension: MS Stereo
Codec ID: 55
Codec ID/Hint: MP3
Duration: 6mn 20s
Bit rate mode: Variable
Bit rate: 107 Kbps
Channel(s): 2 channels
Sampling rate: 48.0 KHz
Compression mode: Lossy
Stream size: 4.85 MiB (7%)
Alignment: Aligned on interleaves
Interleave, duration: 24 ms (0.60 video frame)
Interleave, preload duration: 519 ms[/spoiler][url=http://rutracker.org/forum/viewtopic.php?t=4745036][b]Шишкина Школа. Математика[/b][/url]
[url=http://rutracker.org/forum/viewtopic.php?t=4749189][b]Шишкина Школа. Музыка[/b][/url]
[url=http://rutracker.org/forum/viewtopic.php?t=4744434][b]Шишкина Школа. География[/b][/url]
[url=http://rutracker.org/forum/viewtopic.php?t=4779145][b]Шишкина Школа. Рисование[/b][/url]
http://rutracker.org/forum/viewtopic.php?t=4779145
скрытый текст

Код:

[size=24]Шишкина школа. Рисование[/size]

[img=right]http://i62.fastpic.ru/big/2014/0708/a4/eea2a6d50c6e9cd9a22246d6b6c25ba4.jpg[/img][b]Страна[/b]: Россия
[b]Тематика[/b]: Передача для детей
[b]Тип раздаваемого материала[/b]: Видеоурок
[b]Продолжительность[/b]: 08:36:13
[b]Год выпуска[/b]: 2011

[b]Язык[/b]: Русский
[b]Перевод[/b]: Не требуется

[b]Описание[/b]: Настоящий художник должен уметь видеть необычное в обыкновенном. Да, да! Сначала он должен научиться подмечать такие детали, которые не заметит никто другой, а уж потом браться за кисти и краски. Впрочем, иногда бывает и наоборот. В любом случае надо непременно попробовать вместе с Художником написать автопортрет, натюрморт и даже пейзаж! Уроки рисования в лесной школе — это незабываемое путешествие в мир гармонии.

[b]Доп. информация[/b]: Видеоуроки рисования для малышей могут быть использованы не только для семейного просмотра, но и для показа на занятиях в дошкольных учреждения.

[b]Качество[/b]: SATRip
[b]Формат[/b]: AVI
[b]Видео кодек[/b]: XviD
[b]Аудио кодек[/b]: MP3
[b]Видео[/b]: XviD, 720x544, (4:3), ~1360kbps avg, 0.14 bit/pixel, 25 fps
[b]Аудио[/b]: 48.100 kHz, MPEG Layer 3, 2 ch, 106.00 kbps avg[spoiler="Скриншоты"][url=http://fastpic.ru/view/65/2014/0710/a6e27a1a1a18830eebe804db255ca270.jpg.html][img]http://i65.fastpic.ru/thumb/2014/0710/70/a6e27a1a1a18830eebe804db255ca270.jpeg[/img][/url] [url=http://fastpic.ru/view/65/2014/0710/ad31895b55fcd024c329dd339a5f2b30.jpg.html][img]http://i65.fastpic.ru/thumb/2014/0710/30/ad31895b55fcd024c329dd339a5f2b30.jpeg[/img][/url] [url=http://fastpic.ru/view/65/2014/0710/5dc4e04fb18fee771109fe884588c00f.jpg.html][img]http://i65.fastpic.ru/thumb/2014/0710/0f/5dc4e04fb18fee771109fe884588c00f.jpeg[/img][/url][/spoiler][spoiler="Сведения MediaInfo"]General
Complete name: F:\Детям\Передачи\ТК Союз\Шишкин Лес\Шишкина Школа\Рисоваание\02. Линии.avi
Format: AVI
Format/Info: Audio Video Interleave
File size: 45.0 MiB
Duration: 4mn 18s
Overall bit rate mode: Variable
Overall bit rate: 1 462 Kbps
Writing application: VirtualDubMod 1.5.4.1 (build 2178/release)
Writing library: VirtualDubMod build 2178/release

Video
ID: 0
Format: MPEG-4 Visual
Format settings, BVOP: 1
Format settings, QPel: No
Format settings, GMC: No warppoints
Format settings, Matrix: Default (H.263)
Muxing mode: Packed bitstream
Codec ID: DX50
Codec ID/Hint: DivX 5
Duration: 4mn 18s
Bit rate: 1 345 Kbps
Width: 720 pixels
Height: 544 pixels
Display aspect ratio: 4:3
Frame rate: 25.000 fps
Color space: YUV
Chroma subsampling: 4:2:0
Bit depth: 8 bits
Scan type: Progressive
Compression mode: Lossy
Bits/(Pixel*Frame): 0.137
Stream size: 41.4 MiB (92%)
Writing library: DivX 6.8.5 (UTC 2009-08-20)

Audio
ID: 1
Format: MPEG Audio
Format version: Version 1
Format profile: Layer 3
Mode: Joint stereo
Mode extension: MS Stereo
Codec ID: 55
Codec ID/Hint: MP3
Duration: 4mn 17s
Bit rate mode: Variable
Bit rate: 104 Kbps
Channel count: 2 channels
Sampling rate: 48.0 KHz
Compression mode: Lossy
Stream size: 3.20 MiB (7%)
Alignment: Aligned on interleaves
Interleave, duration: 24 ms (0.60 video frame)
Interleave, preload duration: 520 ms[/spoiler][url=http://rutracker.org/forum/viewtopic.php?t=4749189][b]Шишкина Школа. Музыка[/b][/url]
[url=http://rutracker.org/forum/viewtopic.php?t=4745036][b]Шишкина Школа. Математика[/b][/url]
[url=http://rutracker.org/forum/viewtopic.php?t=4744434][b]Шишкина Школа. География[/b][/url]
[url=http://rutracker.org/forum/viewtopic.php?t=4851316][b]Шишкина Школа. Русский язык[/b][/url]
http://rutracker.org/forum/viewtopic.php?t=4749189
скрытый текст

Код:

[size=24]Шишкина школа. Музыка[/size]

[img=right]http://i61.fastpic.ru/big/2014/0527/c3/6e00576d0d1722a0fd58bfff06c104c3.jpg[/img][b]Страна[/b]: Россия
[b]Тип раздаваемого материала[/b]: Видеоурок
[b]Продолжительность[/b]: 08:43:08
[b]Год выпуска[/b]: 2010

[b]Язык[/b]: Русский
[b]Перевод[/b]: Отсутствует

[b]Описание[/b]: Цикл образовательных программ для детей дошкольного возраста.
Кто-то учит английский, кто-то французский, кто-то немецкий... А в Шишкиной школе малышей обучают языку музыки! Да, да, именно так! Учитель Тимур Мажорыч уверен: чтобы научиться понимать этот язык, надо многое узнать о музыкальных жанрах, об инструментах и композиторах. Эти знания — своего рода ключ в прекрасный мир звуков, где каждый может почувствовать себя немного композитором.

[b]Доп. информация[/b]: Видеоуроки музыки для детей могут быть использованы не только для семейного просмотра, но и для показа на занятиях в дошкольных учреждениях.

[b]Качество[/b]: SATRip
[b]Формат[/b]: AVI
[b]Видео кодек[/b]: XviD
[b]Аудио кодек[/b]: MP3
[b]Видео[/b]: XviD, 720x544, (4:3), ~1360kbps avg, 0.14 bit/pixel, 25 fps
[b]Аудио[/b]: 48.100 kHz, MPEG Layer 3, 2 ch, 106.00 kbps avg[spoiler="Скриншоты"][url=http://fastpic.ru/view/62/2014/0527/43b4aa732f3e3ecf37ef8f6d7b42a076.jpg.html][img]http://i62.fastpic.ru/thumb/2014/0527/76/43b4aa732f3e3ecf37ef8f6d7b42a076.jpeg[/img][/url] [url=http://fastpic.ru/view/62/2014/0527/254d2bf750dd5c9c646c3360a9f228c2.jpg.html][img]http://i62.fastpic.ru/thumb/2014/0527/c2/254d2bf750dd5c9c646c3360a9f228c2.jpeg[/img][/url] [url=http://fastpic.ru/view/62/2014/0527/9e3a5b08c9cbbb9db6bfcf3bbddc830d.jpg.html][img]http://i62.fastpic.ru/thumb/2014/0527/0d/9e3a5b08c9cbbb9db6bfcf3bbddc830d.jpeg[/img][/url][/spoiler][spoiler="Сведения MediaInfo"]General
Complete name: F:\Детям\Передачи\ТК Союз\Шишкин Лес\Шишкина Школа\Музыка\01. Звуки.avi
Format: AVI
Format/Info: Audio Video Interleave
File size: 75.0 MiB
Duration: 7mn 26s
Overall bit rate mode: Variable
Overall bit rate: 1 409 Kbps
Writing application: VirtualDubMod 1.5.4.1 (build 2178/release)
Writing library: VirtualDubMod build 2178/release

Video
ID : 0
Format: MPEG-4 Visual
Format settings, BVOP: 1
Format settings, QPel: No
Format settings, GMC: No warppoints
Format settings, Matrix: Default (H.263)
Muxing mode: Packed bitstream
Codec ID: DX50
Codec ID/Hint: DivX 5
Duration: 7mn 26s
Bit rate: 1 293 Kbps
Width: 720 pixels
Height: 544 pixels
Display aspect ratio: 4:3
Frame rate: 25.000 fps
Color space: YUV
Chroma subsampling: 4:2:0
Bit depth: 8 bits
Scan type: Progressive
Compression mode: Lossy
Bits/(Pixel*Frame): 0.132
Stream size: 68.8 MiB (92%)
Writing library: DivX 6.8.5 (UTC 2009-08-20)

Audio
ID : 1
Format: MPEG Audio
Format version: Version 1
Format profile: Layer 3
Mode: Joint stereo
Mode extension: MS Stereo
Codec ID: 55
Codec ID/Hint: MP3
Duration: 7mn 26s
Bit rate mode: Variable
Bit rate: 104 Kbps
Channel count: 2 channels
Sampling rate: 48.0 KHz
Compression mode: Lossy
Stream size: 5.53 MiB (7%)
Alignment: Aligned on interleaves
Interleave, duration: 24 ms (0.60 video frame)
Interleave, preload duration: 535 ms[/spoiler][url=http://rutracker.org/forum/viewtopic.php?t=4745036][b]Шишкина Школа. Математика[/b][/url]
[url=http://rutracker.org/forum/viewtopic.php?t=4744434][b]Шишкина Школа. География[/b][/url]
[url=http://rutracker.org/forum/viewtopic.php?t=4779145][b]Шишкина Школа. Рисование[/b][/url]
[url=http://rutracker.org/forum/viewtopic.php?t=4851316][b]Шишкина Школа. Русский язык[/b][/url]
http://rutracker.org/forum/viewtopic.php?t=4745036
скрытый текст

Код:

[size=24]Шишкина школа. Математика[/size]

[img=right]http://i63.fastpic.ru/big/2014/0522/7c/01dd971bc9fd6775b84f66032897587c.jpg[/img][b]Страна[/b]: Россия
[b]Тематика[/b]: Дошкольное образование
[b]Тип раздаваемого материала[/b]: Видеоурок
[b]Продолжительность[/b]: 09:02:55
[b]Год выпуска[/b]: 2010

[b]Язык[/b]: Русский
[b]Перевод[/b]: Отсутствует

[b]Описание[/b]: Цикл образовательных программ для детей дошкольного возраста.
Математика — наука не простая, она требует дисциплины и внимательности. Но с профессором Пифагором этот предмет станет настолько увлекательным, что детей нельзя будет от экрана оторвать! Каждый урок математики для малышей в лесной школе — это весёлая разминка для ума, которая проходит в игровой форме. Если посещать занятия регулярно, можно научиться «щёлкать» даже трудные задачки, как орешки! Занимательная математика для самых маленьких позволит узнать удивительные вещи, подготовит дошкольников к началу учебной жизни.

[b]Доп. информация[/b]: Видеоуроки по математике могут быть использованы не только для семейного просмотра, но и для показа на занятиях в дошкольных учреждениях.
[size=24][color=red]Торрент перезалит! Удалён файл 03. Примеры со знаками, и добавлен файл 59. Ищем сходство с геометрическими фигурами. Файл 60 переименован в 60. Пространственные понятия.[/color][/size]

[b]Качество[/b]: SATRip
[b]Формат[/b]: AVI
[b]Видео кодек[/b]: XviD
[b]Аудио кодек[/b]: MP3
[b]Видео[/b]: XviD, 720x544, (4:3), ~1360kbps avg, 0.14 bit/pixel, 25 fps
[b]Аудио[/b]: 48.100 kHz, MPEG Layer 3, 2 ch, 106.00 kbps avg[spoiler="Скриншоты"][url=http://fastpic.ru/view/63/2014/0522/6f981089a3f6d605ab771d1c693078f7.jpg.html][img]http://i63.fastpic.ru/thumb/2014/0522/f7/6f981089a3f6d605ab771d1c693078f7.jpeg[/img][/url] [url=http://fastpic.ru/view/63/2014/0522/43157d41c1dd72886cf9f08757943551.jpg.html][img]http://i63.fastpic.ru/thumb/2014/0522/51/43157d41c1dd72886cf9f08757943551.jpeg[/img][/url] [url=http://fastpic.ru/view/63/2014/0522/364873b0c18f7f99f6064c571e787185.jpg.html][img]http://i63.fastpic.ru/thumb/2014/0522/85/364873b0c18f7f99f6064c571e787185.jpeg[/img][/url][/spoiler][spoiler="Отчет MediaInfo"]General
Complete name: F:\Детям\Передачи\ТК Союз\Шишкин Лес\Шишкина Школа\Математика\01. Цифра 1.avi
Format: AVI
Format/Info: Audio Video Interleave
File size: 90.0 MiB
Duration: 8mn 43s
Overall bit rate mode: Variable
Overall bit rate: 1 443 Kbps
Writing application: VirtualDubMod 1.5.4.1 (build 2178/release)
Writing library: VirtualDubMod build 2178/release

Video
ID: 0
Format: MPEG-4 Visual
Format settings, BVOP: 1
Format settings, QPel: No
Format settings, GMC: No warppoints
Format settings, Matrix: Default (H.263)
Muxing mode: Packed bitstream
Codec ID: DX50
Codec ID/Hint: DivX 5
Duration: 8mn 43s
Bit rate: 1 323 Kbps
Width: 720 pixels
Height: 544 pixels
Display aspect ratio: 4:3
Frame rate: 25.000 fps
Color space: YUV
Chroma subsampling: 4:2:0
Bit depth: 8 bits
Scan type: Progressive
Compression mode: Lossy
Bits/(Pixel*Frame): 0.135
Stream size: 82.5 MiB (92%)
Writing library: DivX 6.8.5 (UTC 2009-08-20)

Audio
ID: 1
Format: MPEG Audio
Format version: Version 1
Format profile: Layer 3
Mode: Joint stereo
Mode extension: MS Stereo
Codec ID: 55
Codec ID/Hint: MP3
Duration: 8mn 42s
Bit rate mode: Variable
Bit rate: 107 Kbps
Channel count: 2 channels
Sampling rate: 48.0 KHz
Compression mode: Lossy
Stream size: 6.66 MiB (7%)
Alignment: Aligned on interleaves
Interleave, duration: 24 ms (0.60 video frame)
Interleave, preload duration: 517 ms[/spoiler][url=http://rutracker.org/forum/viewtopic.php?t=4744434][b]Шишкина Школа. География[/b][/url]
[url=http://rutracker.org/forum/viewtopic.php?t=4749189][b]Шишкина Школа. Музыка[/b][/url]
[url=http://rutracker.org/forum/viewtopic.php?t=4779145][b]Шишкина Школа. Рисование[/b][/url]
[url=http://rutracker.org/forum/viewtopic.php?t=4851316][b]Шишкина Школа. Русский язык[/b][/url]
http://rutracker.org/forum/viewtopic.php?t=4744434
скрытый текст

Код:

[size=24]Шишкина школа. География[/size]

[img=right]http://i63.fastpic.ru/big/2014/0521/cc/7c03a6927706a2ea60fe54c47e0edacc.jpg[/img][b]Дата/Год выпуска[/b]: 2010
[b]Страна[/b]: Россия
[b]Жанр[/b]: Передача для детей
[b]Продолжительность[/b]: 08:54:57
[b]Режиссер[/b]: ДСОТ "Радость моя"
[b]Телеканал[/b]: ДСОТ "Радость моя"
[b]Описание[/b]: Цикл образовательных программ для детей дошкольного возраста.
Кто из ребят не мечтает о путешествиях? На уроках географии в лесной школе не бывает скучно: здесь можно не только узнать о жизни океанов и материков, но и побывать вместе с профессором Иноземцевым в разных странах, познакомиться с государственной символикой, с достопримечательностями столиц. Занимательная география для детей позволит узнать удивительные вещи, подготовит дошкольников к началу учебной жизни.

[b]Доп. информация[/b]: Видеоуроки по географии могут быть использованы не только для семейного просмотра, но и для показа на занятиях в дошкольных учреждениях.

[b]Сэмпл[/b]: [url]http://multi-up.com/975174[/url]

[b]качество[/b]: SATRip
[b]формат[/b]: AVI
[b]Видео[/b]: XviD, 720x544, (4:3), ~1360kbps avg, 0.14 bit/pixel, 25 fps
[b]Аудио[/b]: 48.100 kHz, MPEG Layer 3, 2 ch, 106.00 kbps avg[spoiler="Список выпусков/серий"]01. Глобус.avi
02. Параллели и меридианы.avi
03. Карты.avi
04. Стороны света.avi
05. Реки, моря и океаны.avi
06. Моря.avi
07. Озёра.avi
08. Реки.avi
09. Горы.avi
10. Северное заполярье.avi
11. Антартида.avi
12. Животный мир Арктики.avi
13. Тундра.avi
14. Тундра. Обитатели.avi
15. Лесотундра.avi
16. Тайга.avi
17. Тайга. Обитатели. Животные (1 часть).avi
18. Тайга. Обитатели. Животные (2 часть).avi
19. Смешанный лес.avi
20. Тайга. Обитатели. Птицы.avi
21. Смешанный лес. Обитатели (1 часть).avi
22. Смешанный лес. Обитатели (2 часть).avi
23. Смешанный лес. Обитатели. Птицы.avi
24. Болото.avi
25. Лесостепь и степь.avi
26. Степь. Обитатели.avi
27. Степь. Обитатели. Птицы.avi
28. Прерия.avi
29. Пустыня.avi
30 Пустыня. Обитатели (1 часть).avi
31. Пустыня. Обитатели (2 часть).avi
32. Джунгли.avi
33. Джунгли. Обитатели. Животные.avi
34. Джунгли. Обитатели. Птицы.avi
35. Саванна.avi
36. Необычные морские обитатели.avi
37. Необычные морские обитатели.avi
38. Топографическая карта.avi
39. Географический кроссворд.avi
40. Политическая карта.avi
41. Россия (1 часть).avi
42. Россия (2 часть).avi
43. Государственный флаг и регионы.avi
44. Рисунки жителей Шишкиного Леса в национальных костюмах.avi
45. Украина.avi
46. Казахстан.avi
47. Белоруссия.avi
48. Великобритания.avi
49. Франция.avi
50. Германия.avi
51. Италия.avi
52. Соединённые Штаты Америки (1 часть).avi
53. Соединённые Штаты Америки (2 часть).avi
54. Япония.avi
55. Греция.avi
56. Финляндия.avi
57. Швейцария.avi
58. Нидерланды.avi
59. Израиль.avi
60. Китай.avi
61. Китай.avi
62. Индия.avi
63. Египет.avi
64. Индонезия.avi
65. Мексика.avi
66. Бразилия.avi
67. Чили.avi
68. Эквадор.avi
69. Гренландия и Исландия.avi
70. Канада.avi
71. Канада.avi
72. Турция.avi
73. Австралия.avi
74. Австралия.avi
75. Африка.avi
76. Памятка путешественнику.avi
77. Заключительная передача.avi[/spoiler][spoiler="MediaInfo"]Format: AVI
Format/Info: Audio Video Interleave
File size: 80.0 MiB
Duration: 7mn 37s
Overall bit rate mode: Variable
Overall bit rate: 1 467 Kbps
Writing application: VirtualDubMod 1.5.4.1 (build 2178/release)
Writing library: VirtualDubMod build 2178/release

Video
ID: 0
Format: MPEG-4 Visual
Format settings, BVOP: 1
Format settings, QPel: No
Format settings, GMC: No warppoints
Format settings, Matrix: Default (H.263)
Muxing mode: Packed bitstream
Codec ID: DX50
Codec ID/Hint: DivX 5
Duration: 7mn 37s
Bit rate: 1 347 Kbps
Width: 720 pixels
Height: 544 pixels
Display aspect ratio: 4:3
Frame rate: 25.000 fps
Color space: YUV
Chroma subsampling: 4:2:0
Bit depth: 8 bits
Scan type: Progressive
Compression mode: Lossy
Bits/(Pixel*Frame): 0.138
Stream size: 73.5 MiB (92%)
Writing library: DivX 6.8.5 (UTC 2009-08-20)

Audio
ID: 1
Format: MPEG Audio
Format version: Version 1
Format profile: Layer 3
Mode: Joint stereo
Mode extension: MS Stereo
Codec ID: 55
Codec ID/Hint: MP3
Duration: 7mn 37s
Bit rate mode: Variable
Bit rate: 107 Kbps
Channel count: 2 channels
Sampling rate: 48.0 KHz
Compression mode: Lossy
Stream size: 5.85 MiB (7%)
Alignment: Aligned on interleaves
Interleave, duration: 24 ms (0.60 video frame)
Interleave, preload duration: 501 ms[/pre][/spoiler][spoiler="Скриншоты"][url=http://fastpic.ru/view/64/2014/0521/23402c2eae2ccd22e57c9146ff03098f.jpg.html][img]http://i64.fastpic.ru/thumb/2014/0521/8f/23402c2eae2ccd22e57c9146ff03098f.jpeg[/img][/url] [url=http://fastpic.ru/view/64/2014/0521/fe0ad07d0ee134bbf4e125fbf229346f.jpg.html][img]http://i64.fastpic.ru/thumb/2014/0521/6f/fe0ad07d0ee134bbf4e125fbf229346f.jpeg[/img][/url] [url=http://fastpic.ru/view/64/2014/0521/118603de5327933818d8792f5e396a57.jpg.html][img]http://i64.fastpic.ru/thumb/2014/0521/57/118603de5327933818d8792f5e396a57.jpeg[/img][/url][/spoiler][url=http://rutracker.org/forum/viewtopic.php?t=4745036][b]Шишкина Школа. Математика[/b][/url]
[url=http://rutracker.org/forum/viewtopic.php?t=4749189][b]Шишкина Школа. Музыка[/b][/url]
[url=http://rutracker.org/forum/viewtopic.php?t=4779145][b]Шишкина Школа. Рисование[/b][/url]
[url=http://rutracker.org/forum/viewtopic.php?t=4851316][b]Шишкина Школа. Русский язык[/b][/url]

_________________
Все мои категорические утверждения неверны, включая и это
[Профиль]  [ЛС] 

Виталий Липатов

Администратор

Стаж: 49 лет

Сообщений: 507

Russia

post 26-Дек-2015 01:56 (спустя 3 дня)

[Цитировать] 

Natalie_Nezh писал(а):

Что касается описаний - их может вытянуть с РуТрекера (со всеми ВВ-кодами) не только автор. Ну, конечно, надо проявить изобретательность... Smile
Так подели́тесь секретом-то!
[Профиль]  [ЛС] 

Natalie_Nezh

Стаж: 7 лет 6 месяцев

Сообщений: 9

Откуда: Кёнигсберг

Russia

post 03-Янв-2016 17:49 (спустя 8 дней)

[Цитировать] 

Виталий Липатов
"Поделиться" не получится, скрипт встроен в другой сайт, на котором я имею к нему доступ, как модератор. Но если нужно что-то конкретное из описаний раздач РуТрекера - обращайтесь, помогу. Smile

_________________
Все мои категорические утверждения неверны, включая и это
[Профиль]  [ЛС] 

Виталий Липатов

Администратор

Стаж: 49 лет

Сообщений: 507

Russia

post 05-Янв-2016 23:45 (спустя 2 дня 5 часов)

[Цитировать] 

Спасибо за помощь! Добавил раздачи. Попробую обеспечить их поддержку.

Библейский сюжет
http://pravtor.ru/viewtopic.php?t=14754

Буква в духе. Церковнославянская грамота
http://pravtor.ru/viewtopic.php?p=111122

Духовные размышления с Артемием Владимировым
http://pravtor.ru/viewtopic.php?p=111113

Корепанов К.В. - Читаем Ветхий Завет [2009-2011 г., православная телепередача, SATRip]
http://pravtor.ru/viewtopic.php?p=111114

Нравственное богословие с Корепановым Константином Владиленовичем
http://pravtor.ru/viewtopic.php?p=111115

Читаем Добротолюбие. Лекции К.В. Корепанова
http://pravtor.ru/viewtopic.php?p=111116

Шишкина Школа. Русский язык
http://pravtor.ru/viewtopic.php?p=111117

Шишкина школа. Рисование
http://pravtor.ru/viewtopic.php?p=111118

Шишкина школа. Музыка
http://pravtor.ru/viewtopic.php?p=111119

Шишкина школа. Математика
http://pravtor.ru/viewtopic.php?p=111120

Шишкина школа. География
http://pravtor.ru/viewtopic.php?p=111121
[Профиль]  [ЛС] 
Показать сообщения:    
Ответить на тему

Текущее время: 22-Июл 16:40

Часовой пояс: GMT + 4



Вы не можете начинать темы
Вы не можете отвечать на сообщения
Вы не можете редактировать свои сообщения
Вы не можете удалять свои сообщения
Вы не можете голосовать в опросах
Вы не можете прикреплять файлы к сообщениям
Вы не можете скачивать файлы