Loading...
Error

(Православные песнопения) Благословенная Оптина - Песнопения братии древней обители - 2006, FLAC (tracks + cue), lossless

Ответить на тему
 
Автор Сообщение

Petrorin

Стаж: 3 месяца 7 дней

Сообщений: 30

post 18-Янв-2021 22:18

[Цитировать] 

Благословенная Оптина - Песнопения братии древней обителиРАЗДАЧА ЗАКРЫТА

Актуальная раздача находится ЗДЕСЬ

pic
Страна: Россия
Жанр: православные песнопения
Год выпуска: 2006
Формат: FLAC (tracks + cue)
Битрейт аудио: lossless
Продолжительность: 00:45:47
Источник: релизёр Техник
Лог EAC
Exact Audio Copy V0.99 prebeta 4 from 23. January 2008

Отчёт EAC об извлечении, выполненном 18. января 2009, 13:22

Благословенная Оптина / Песнопения братии древней обители

Дисковод: _NEC DVD_RW ND-3550A Adapter: 0 ID: 0

Режим чтения : Достоверность
Использование точного потока : Да
Отключение кэша аудио : Да
Использование указателей C2 : Нет

Коррекция смещения при чтении : 48
Способность читать области Lead-in и Lead-out : Нет
Заполнение пропущенных сэмплов тишиной : Да
Удаление блоков с тишиной в начале и конце : Нет
При вычислениях CRC использовались нулевые сэмплы : Да
Интерфейс : Установленный внешний ASPI-интерфейс
Обработка зазоров : Добавлено к предыдущему треку

Выходной формат : Пользовательский кодировщик
Выбранный битрейт : 768 kBit/s
Качество : Высокий
Добавление ID3-тэга : Нет
Утилита сжатия : D:\Programs\Exact Audio Copy\FLAC\FLAC.EXE
Дополнительные параметры : -6 -V -T "ARTIST=%a" -T "TITLE=%t" -T "ALBUM=%g" -T "DATE=%y" -T "TRACKNUMBER=%n" -T "GENRE=%m" -T "COMMENT=%e" %s -o %d

TOC извлечённого CD

Трек | Старт | Длительность | Начальный сектор | Конечный сектор
---------------------------------------------------------------------
1 | 0:00.00 | 6:08.30 | 0 | 27629
2 | 6:08.30 | 4:29.45 | 27630 | 47849
3 | 10:38.00 | 2:19.41 | 47850 | 58315
4 | 12:57.41 | 1:20.32 | 58316 | 64347
5 | 14:17.73 | 5:29.31 | 64348 | 89053
6 | 19:47.29 | 3:16.42 | 89054 | 103795
7 | 23:03.71 | 2:38.59 | 103796 | 115704
8 | 25:42.55 | 3:18.65 | 115705 | 130619
9 | 29:01.45 | 1:51.01 | 130620 | 138945
10 | 30:52.46 | 2:18.66 | 138946 | 149361
11 | 33:11.37 | 3:03.37 | 149362 | 163123
12 | 36:14.74 | 3:07.51 | 163124 | 177199
13 | 39:22.50 | 4:31.16 | 177200 | 197540
14 | 43:53.66 | 1:53.59 | 197541 | 206074

Трек 1

Имя файла G:\Music\Christian\Благословенная Оптина - Песнопения братии древней обители\01 - Благослови, душе моя.wav

Длина предзазора 0:00:02.00

Пиковый уровень 100.0 %
Качество трека 100.0 %
CRC теста 663D3292
CRC копии 663D3292
Трек не обнаружен в базе AccurateRip
Копирование... OK

Трек 2

Имя файла G:\Music\Christian\Благословенная Оптина - Песнопения братии древней обители\02 - Блажен муж.wav

Пиковый уровень 85.5 %
Качество трека 100.0 %
CRC теста 8FAC1749
CRC копии 8FAC1749
Трек не обнаружен в базе AccurateRip
Копирование... OK

Трек 3

Имя файла G:\Music\Christian\Благословенная Оптина - Песнопения братии древней обители\03 - Свете тихий.wav

Пиковый уровень 85.8 %
Качество трека 100.0 %
CRC теста 6F68046A
CRC копии 6F68046A
Трек не обнаружен в базе AccurateRip
Копирование... OK

Трек 4

Имя файла G:\Music\Christian\Благословенная Оптина - Песнопения братии древней обители\04 - Богородице дево, радуйся.wav

Пиковый уровень 85.0 %
Качество трека 100.0 %
CRC теста D1267D1D
CRC копии D1267D1D
Трек не обнаружен в базе AccurateRip
Копирование... OK

Трек 5

Имя файла G:\Music\Christian\Благословенная Оптина - Песнопения братии древней обители\05 - Честнейшую херувим.wav

Пиковый уровень 85.8 %
Качество трека 99.9 %
CRC теста 7EA6E2BB
CRC копии 7EA6E2BB
Трек не обнаружен в базе AccurateRip
Копирование... OK

Трек 6

Имя файла G:\Music\Christian\Благословенная Оптина - Песнопения братии древней обители\06 - Херувимская.wav

Пиковый уровень 86.0 %
Качество трека 99.9 %
CRC теста 30CA1E70
CRC копии 30CA1E70
Трек не обнаружен в базе AccurateRip
Копирование... OK

Трек 7

Имя файла G:\Music\Christian\Благословенная Оптина - Песнопения братии древней обители\07 - Первый псалом.wav

Пиковый уровень 100.0 %
Качество трека 100.0 %
CRC теста E879736A
CRC копии E879736A
Трек не обнаружен в базе AccurateRip
Копирование... OK

Трек 8

Имя файла G:\Music\Christian\Благословенная Оптина - Песнопения братии древней обители\08 - Второй псалом.wav

Пиковый уровень 96.2 %
Качество трека 100.0 %
CRC теста 907FD6CF
CRC копии 907FD6CF
Трек не обнаружен в базе AccurateRip
Копирование... OK

Трек 9

Имя файла G:\Music\Christian\Благословенная Оптина - Песнопения братии древней обители\09 - Третий псалом.wav

Пиковый уровень 82.6 %
Качество трека 100.0 %
CRC теста 44016430
CRC копии 44016430
Трек не обнаружен в базе AccurateRip
Копирование... OK

Трек 10

Имя файла G:\Music\Christian\Благословенная Оптина - Песнопения братии древней обители\10 - Четвертый псалом.wav

Пиковый уровень 100.0 %
Качество трека 100.0 %
CRC теста E28CFBB3
CRC копии E28CFBB3
Трек не обнаружен в базе AccurateRip
Копирование... OK

Трек 11

Имя файла G:\Music\Christian\Благословенная Оптина - Песнопения братии древней обители\11 - Пятый псалом.wav

Пиковый уровень 100.0 %
Качество трека 100.0 %
CRC теста 8C99F46C
CRC копии 8C99F46C
Трек не обнаружен в базе AccurateRip
Копирование... OK

Трек 12

Имя файла G:\Music\Christian\Благословенная Оптина - Песнопения братии древней обители\12 - Шестой псалом.wav

Пиковый уровень 92.4 %
Качество трека 100.0 %
CRC теста 57290CC3
CRC копии 57290CC3
Трек не обнаружен в базе AccurateRip
Копирование... OK

Трек 13

Имя файла G:\Music\Christian\Благословенная Оптина - Песнопения братии древней обители\13 - Седьмой псалом.wav

Пиковый уровень 100.0 %
Качество трека 100.0 %
CRC теста 02E08002
CRC копии 02E08002
Трек не обнаружен в базе AccurateRip
Копирование... OK

Трек 14

Имя файла G:\Music\Christian\Благословенная Оптина - Песнопения братии древней обители\14 - Восьмой псалом.wav

Пиковый уровень 98.7 %
Качество трека 100.0 %
CRC теста 331277BA
CRC копии 331277BA
Трек не обнаружен в базе AccurateRip
Копирование... OK

Ни одного трека нет в базе AccurateRip

Ошибок не произошло

Конец отчёта
CUE-sheet
REM GENRE Christian
REM DISCID DB0ABB0E
REM COMMENT "ExactAudioCopy v0.99pb4"
PERFORMER "Благословенная Оптина"
TITLE "Песнопения братии древней обители"
FILE "01 - Благослови, душе моя.wav" WAVE
TRACK 01 AUDIO
TITLE "Благослови, душе моя"
PERFORMER "Благословенная Оптина"
INDEX 01 00:00:00
FILE "02 - Блажен муж.wav" WAVE
TRACK 02 AUDIO
TITLE "Блажен муж"
PERFORMER "Благословенная Оптина"
INDEX 01 00:00:00
FILE "03 - Свете тихий.wav" WAVE
TRACK 03 AUDIO
TITLE "Свете тихий"
PERFORMER "Благословенная Оптина"
INDEX 01 00:00:00
FILE "04 - Богородице дево, радуйся.wav" WAVE
TRACK 04 AUDIO
TITLE "Богородице дево, радуйся"
PERFORMER "Благословенная Оптина"
INDEX 01 00:00:00
FILE "05 - Честнейшую херувим.wav" WAVE
TRACK 05 AUDIO
TITLE "Честнейшую херувим"
PERFORMER "Благословенная Оптина"
INDEX 01 00:00:00
FILE "06 - Херувимская.wav" WAVE
TRACK 06 AUDIO
TITLE "Херувимская"
PERFORMER "Благословенная Оптина"
INDEX 01 00:00:00
FILE "07 - Первый псалом.wav" WAVE
TRACK 07 AUDIO
TITLE "Первый псалом"
PERFORMER "Благословенная Оптина"
INDEX 01 00:00:00
FILE "08 - Второй псалом.wav" WAVE
TRACK 08 AUDIO
TITLE "Второй псалом"
PERFORMER "Благословенная Оптина"
INDEX 01 00:00:00
FILE "09 - Третий псалом.wav" WAVE
TRACK 09 AUDIO
TITLE "Третий псалом"
PERFORMER "Благословенная Оптина"
INDEX 01 00:00:00
FILE "10 - Четвертый псалом.wav" WAVE
TRACK 10 AUDIO
TITLE "Четвертый псалом"
PERFORMER "Благословенная Оптина"
INDEX 01 00:00:00
FILE "11 - Пятый псалом.wav" WAVE
TRACK 11 AUDIO
TITLE "Пятый псалом"
PERFORMER "Благословенная Оптина"
INDEX 01 00:00:00
FILE "12 - Шестой псалом.wav" WAVE
TRACK 12 AUDIO
TITLE "Шестой псалом"
PERFORMER "Благословенная Оптина"
INDEX 01 00:00:00
FILE "13 - Седьмой псалом.wav" WAVE
TRACK 13 AUDIO
TITLE "Седьмой псалом"
PERFORMER "Благословенная Оптина"
INDEX 01 00:00:00
FILE "14 - Восьмой псалом.wav" WAVE
TRACK 14 AUDIO
TITLE "Восьмой псалом"
PERFORMER "Благословенная Оптина"
INDEX 01 00:00:00
Доп. информация
В оригинальной раздаче Техника названия треков содержали ошибки ("херувирум", "херувирумская" и лишние пробелы) в именах файлов, cue-sheet и в логе EAC. Поскольку Техник представил лог EAC без контрольной суммы (что не позволяет проверить отчёт на неподдельность), мной были исправлены ошибки в названиях треков как в именах файлов, так и в индексной карте cue и отчёте EAC. Других изменений в содержимое оригинальной раздачи не вносилось, и всё остальное публикуется "как есть". Приятного прослушивания!
[Профиль]  [ЛС] 
Показать сообщения:    
Ответить на тему

Текущее время: 26-Фев 11:25

Часовой пояс: GMT + 4



Вы не можете начинать темы
Вы не можете отвечать на сообщения
Вы не можете редактировать свои сообщения
Вы не можете удалять свои сообщения
Вы не можете голосовать в опросах
Вы не можете прикреплять файлы к сообщениям
Вы не можете скачивать файлы