Loading...
Error

Истории Ветхого Завета [Часть: 1-3 / Серии: 37] (Дмитрий Демидов) [2007-2010, мультфильм, Библия для детей, просвещение, образование, DVDRip-AVC]

Ответить на тему
 
Автор Сообщение

Глеб Беркут

Стаж: 4 года 11 месяцев

Сообщений: 59

Russia

post 14-Июл-2012 18:22

[Цитировать] 

Истории ветхого завета



pic
Страна: Россия
Жанр: мультфильм, Библия для детей, просвещение, образование
Продолжительность серии: 37~4 минуты
Год выпуска: 2007-2010
Перевод: Не требуется
Русские субтитры: нет
Режиссёр: Демидов Дмитрий (телеканал Радость моя)

Описание:
Каким образом возник наш мир? Как появились первые люди Адам и Ева? Что такое рай, и почему люди лишились райской жизни? Отчего случился всемирный потоп? Почему люди говорят на разных языках? Ответы на эти и многие другие вопросы дает Библия. Библейским сюжетам посвящены мультфильмы из цикла "Истории Ветхого Завета"


Качество: DVDRip-AVC
Формат: MP4
Видео кодек: AVC
Аудио кодек: AAC
Видео: 640x480 (4:3), 25fps, ~1200 kbps, ~0.2 bit/pixel
Аудио: 48000 Гц, 2ch, 128 kbps
Субтитры: отсутствуют
Сэмпл: http://onemove.ru/64468/

Список серий:
Указан правильный порядок серий, в соответствии с раздаваемым торрентом
Часть 1
S01E01. Сотворение мира
S01E02. Адам и Ева
S01E03. Каин и Авель
S01E04. Потоп
S01E05. Вавилонская башня
S01E06. Призвание Авраама
S01E07. Исаак и Ревекка
S01E08. Иаков и Исав
S01E09. Иосиф и братья. Часть 1
S01E09. Иосиф и братья. Часть 2
Часть 2
S02E01. Неопалимая Купина
S02E02. Египетские казни
S02E03. Моисей: дарование Закона
S02E04. Валаамова ослица
S02E05. Земля обетованная
S02E06. Иисус Навин
S02E07. Гедеон
S02E08. Иеффай
S02E09. Самсон
S02E10. Давид и Саул
S02E11. Давид и Голиаф
S02E12. Давид.Грехопадение
S02E13. Псалтирь
S02E14. Давид и Авесcалом
S02E15. Соломон
Часть 3
S03E01.Скиния.Храм Соломонов
S03E02.Пророк Илья
S03E03.Пророк Елисей
S03E04.Елисей исцеляет Неемана
S03E05.Товия и Ангел
S03E06.Пророчество Иезекииля
S03E07.Страдания Иова
S03E08.Пророк Иона
S03E09.Пир Валтасара
S03E10.Отроки в печи
S03E11.Даниил во рву со львами
S03E12.Эсфирь
Подробные технические данные

Код:

Формат : MPEG-4
Профиль формата : Base Media
Идентификатор кодека : isom
Размер файла : 40,5 Мбайт
Продолжительность : 3 м. 57 с.
Общий поток : 1432 Кбит/сек
Программа кодирования : XviD4PSP 6.0 / 53.6.0
Видео
Идентификатор : 1
Формат : AVC
Формат/Информация : Advanced Video Codec
Профиль формата : High@L4.1
Параметр CABAC формата : Да
Параметр ReFrames формата : 3 кадра
Идентификатор кодека : avc1
Идентификатор кодека/Информация : Advanced Video Coding
Продолжительность : 3 м. 57 с.
Битрейт : 1298 Кбит/сек
Ширина : 640 пикселей
Высота : 480 пикселей
Соотношение сторон : 4:3
Режим частоты кадров : Постоянный
Частота кадров : 25,000 кадров/сек
Цветовое пространство : YUV
Субдискретизация насыщенности : 4:2:0
Битовая глубина : 8 бит
Тип развёртки : Прогрессивная
Бит/(Пиксели*Кадры) : 0.169
Размер потока : 36,8 Мбайт (91%)
Библиотека кодирования : x264 core 116 r2019M 9cc407d
Настройки программы : cabac=1 / ref=3 / deblock=1:0:0 / analyse=0x3:0x133 / me=hex / subme=7 / psy=1 / psy_rd=1.00:0.20 / mixed_ref=1 / me_range=16 / chroma_me=1 / trellis=1 / 8x8dct=1 / cqm=0 / deadzone=21,11 / fast_pskip=1 / chroma_qp_offset=-3 / threads=8 / sliced_threads=0 / nr=0 / decimate=1 / interlaced=0 / bluray_compat=0 / constrained_intra=0 / bframes=3 / b_pyramid=1 / b_adapt=2 / b_bias=0 / direct=3 / weightb=1 / open_gop=0 / weightp=2 / keyint=250 / keyint_min=25 / scenecut=40 / intra_refresh=0 / rc_lookahead=40 / rc=crf / mbtree=1 / crf=21.0 / qcomp=0.60 / qpmin=10 / qpmax=51 / qpstep=4 / vbv_maxrate=9000 / vbv_bufsize=1835 / crf_max=30.0 / nal_hrd=none / ip_ratio=1.40 / aq=1:1.00
Аудио
Идентификатор : 2
Формат : AAC
Формат/Информация : Advanced Audio Codec
Профиль формата : LC
Идентификатор кодека : 40
Продолжительность : 3 м. 57 с.
Вид битрейта : Постоянный
Битрейт : 128 Кбит/сек
Каналы : 2 канала
Расположение каналов : Front: L R
Частота : 48,0 КГц
Метод сжатия : С потерями
Размер потока : 3,62 Мбайт (9%)
Язык : Russian
Скриншоты
pic
pic
pic



_________________
Не хлебом единым....
[Профиль]  [ЛС] 

о.Сергий

Стаж: 6 лет 9 месяцев

Сообщений: 93

Откуда: Калмыкия

Russia

post 14-Июл-2012 22:13 (спустя 3 часа)

[Цитировать] 

Спаси Вас Господь!

_________________
И свет во тьме светит, и тьма не объяла его.
[Профиль]  [ЛС] 

Елена 1957

Стаж: 2 года 6 месяцев

Сообщений: 2

Russia

post 30-Окт-2014 09:18 (спустя 2 года 3 месяца)

[Цитировать] 

Зарегистрировалась. КАк теперь скачать " Истории Ветхого Завета"?

_________________
Elena
[Профиль]  [ЛС] 

Academic Crack

Администратор

Стаж: 8 лет 5 месяцев

Сообщений: 2082

Russia

post 30-Окт-2014 11:00 (спустя 1 час 42 минуты)

[Цитировать] 

Никак. Закрыто по требованию правообладателей. Смотрите на название раздела, в котором этот топик.

_________________
pic
pic 100 Мбит/с, pic 100 Мбит/с.
Исправили раздачу? Пишите в личку со ссылкой на раздачу.
[Профиль]  [ЛС] 

Елена 1957

Стаж: 2 года 6 месяцев

Сообщений: 2

Russia

post 30-Окт-2014 11:47 (спустя 46 минут)

[Цитировать] 

Уже скачала на другом сайте.

_________________
Elena
[Профиль]  [ЛС] 
Показать сообщения:    
Ответить на тему

Текущее время: 24-Май 08:15

Часовой пояс: GMT + 4



Вы не можете начинать темы
Вы не можете отвечать на сообщения
Вы не можете редактировать свои сообщения
Вы не можете удалять свои сообщения
Вы не можете голосовать в опросах
Вы не можете прикреплять файлы к сообщениям
Вы не можете скачивать файлы