Loading...
Error

Встреча (60 выпусков, видео + аудио) (протоиерей Андрей Ткачев) [2018-2019 гг.]

Ответить на тему
Статистика раздачи
   
 
Автор Сообщение

Shumoffon

Стаж: 9 лет

Сообщений: 21

Откуда: Кемерово

Russia

post 23-Окт-2019 10:17

[Цитировать] 

ВСТРЕЧА (60 выпусков, видео + аудио) (протоиерей Андрей Ткачёв)

Год выпуска: 2018-2019 гг.

В фильме снимались: Протоиерей Андрей Ткачев и самая живая аудитория - молодёжь

Описание: Каждую неделю служитель храма святителя Василия Великого в подмосковном селе Зайцево писатель, проповедник и телеведущий протоиерей Андрей Ткачев встречается в студии с самой «живой» аудиторией – молодыми девушками и юношами, чтобы обсудить темы, волнующие любого ищущего человека: самоопределение, запреты и повеления, хорошо ли человеку быть одному, что такое вера и что есть Бог.

(из офописания в офплейлисте я убрал две лишние запятые)

Дополнительная информация: Видео скачано в формате "самое лучшее из доступного", аудио уже из него сконвертировано в формате "качество как у оригинала". Несмотря на это, размер довольно-таки разнится при практически одинаковом времени выпусков.

MediaInfo по одному рандомному видео и аудио
скрытый текст
Общее
Полное имя : D:\ВСТРЕЧА\ВИДЕО\ВСТРЕЧА. ПРОТОИЕРЕЙ АНДРЕЙ ТКАЧЕВ. БОГОСЛОВИЕ.mp4
Формат : MPEG-4
Профиль формата : Base Media
Идентификатор кодека : isom (isom/iso2/avc1/mp41)
Размер файла : 885 Мбайт
Продолжительность : 48 м. 12 с.
Общий поток : 2566 Кбит/сек
Программа кодирования : Lavf58.20.100
Обложка : Yes

Видео
Идентификатор : 1
Формат : AVC
Формат/Информация : Advanced Video Codec
Профиль формата : High@L4
Настройки формата : CABAC / 3 Ref Frames
Параметр CABAC формата : Да
Параметр RefFrames формата : 3 кадра
Идентификатор кодека : avc1
Идентификатор кодека/Информация : Advanced Video Coding
Продолжительность : 48 м. 12 с.
Битрейт : 2431 Кбит/сек
Ширина : 1920 пикселей
Высота : 1080 пикселей
Соотношение сторон : 16:9
Режим частоты кадров : Постоянный
Частота кадров : 25,000 кадров/сек
Цветовое пространство : YUV
Субдискретизация насыщенности : 4:2:0
Битовая глубина : 8 бит
Тип развёртки : Прогрессивная
Бит/(Пиксели*Кадры) : 0.047
Размер потока : 838 Мбайт (95%)
Заголовок : ISO Media file produced by Google Inc. Created on: 06/04/2019.
Библиотека кодирования : x264 core 155 r2901 7d0ff22
Цветовой диапазон : Limited
Основные цвета : BT.709
Характеристики трансфера : BT.709
Коэффициенты матрицы : BT.709
Codec configuration box : avcC

Аудио
Идентификатор : 2
Формат : AAC LC
Формат/Информация : Advanced Audio Codec Low Complexity
Идентификатор кодека : mp4a-40-2
Продолжительность : 48 м. 12 с.
Вид битрейта : Постоянный
Битрейт : 128 Кбит/сек
Каналы : 2 канала
ChannelLayout : L R
Частота : 44,1 КГц
Частота кадров : 43,066 кадра/сек (1024 SPF)
Метод сжатия : С потерями
Размер потока : 44,1 Мбайт (5%)
Заголовок : ISO Media file produced by Google Inc. Created on: 06/04/2019.
Default : Да
AlternateGroup/String : 1

Общее
Полное имя : D:\ВСТРЕЧА\АУДИО\ВСТРЕЧА. ПРОТОИЕРЕЙ АНДРЕЙ ТКАЧЕВ. КРЕЩЕНИЕ.mp3
Формат : MPEG Audio
Размер файла : 45,2 Мбайт
Продолжительность : 49 м. 19 с.
Режим общего битрейта : Переменный
Общий поток : 128 Кбит/сек
Библиотека кодирования : LAME3.99.5
major_brand : ajor
minor_version : ino
compatible_brands : ompatible_brands
comment : omment

Аудио
Формат : MPEG Audio
Версия формата : Version 1
Профиль формата : Layer 3
Настройки формата : Joint stereo / MS Stereo
Продолжительность : 49 м. 19 с.
Вид битрейта : Переменный
Битрейт : 128 Кбит/сек
Каналы : 2 канала
Частота : 44,1 КГц
Частота кадров : 38,281 кадров/сек (1152 SPF)
Метод сжатия : С потерями
Размер потока : 45,2 Мбайт (100%)
Библиотека кодирования : LAME3.99.5
Если востребованности в скАчке не будет, буду и дальше смотреть "в одно рыло". Smile

Администрации: можете удалить любой мой релиз без вопросов, только уведомите об этом, пожалуйста.

Касательно обновления: может, выпуску к 70-му...
скрытый текст
Ну а пока что монументализируем Cool :
Download

Войдите на сайт, чтобы увидеть полную информацию.

Как скачивать  ·   Правила трекера


_________________
Слава БОГУ абсолютно ЗА ВСЁ! Желающим отблагодарить за релизы могу сообщить киви/яндекс в ЛС.
[Профиль]  [ЛС] 

Ard

Стаж: 9 лет 6 месяцев

Сообщений: 187

Russia

post 25-Окт-2019 11:40 (спустя 2 дня 1 час)

[Цитировать] 

Рыло у свиней. Вы же человек.

_________________
Василий Великий: «Кто смотрит на зло без отвращения, тот скоро будет смотреть на него с удовольствием".
[Профиль]  [ЛС] 
Показать сообщения:    
Ответить на тему

Текущее время: 13-Ноя 03:06

Часовой пояс: GMT + 4



Вы не можете начинать темы
Вы не можете отвечать на сообщения
Вы не можете редактировать свои сообщения
Вы не можете удалять свои сообщения
Вы не можете голосовать в опросах
Вы не можете прикреплять файлы к сообщениям
Вы не можете скачивать файлы