Loading...
Error

(Авторская песня) "Житейское море" - 2006, APE (image + .cue), lossless

Ответить на тему
Статистика раздачи
   
 
Автор Сообщение

Владислав

post 03-Ноя-2009 19:14

[Цитировать] 

"Житейское море"

pic
Страна: Россия
Жанр: Авторская песня
Год выпуска: 2006
Формат: APE (image + .cue)
Битрейт аудио: lossless
Продолжительность: 61:20
Трэклист:
Артист: архидиакон Роман (Тамберг), иерей Алексий Грачев
Альбом: Житейское море
==========================================
01 - архидиакон Роман (Тамберг), иерей Алексий Грачев - Добрая ночь 4:49
02 - архидиакон Роман (Тамберг), иерей Алексий Грачев - Слава Богу, снова я один 3:30
03 - архидиакон Роман (Тамберг), иерей Алексий Грачев - Господи помилуй 3:07
04 - архидиакон Роман (Тамберг), иерей Алексий Грачев - О, Мати Пресвятая 1:54
05 - архидиакон Роман (Тамберг), иерей Алексий Грачев - Житейское море 3:21
06 - архидиакон Роман (Тамберг), иерей Алексий Грачев - Праздник 3:50
07 - архидиакон Роман (Тамберг), иерей Алексий Грачев - Боже, помилуй меня 2:44
08 - архидиакон Роман (Тамберг), иерей Алексий Грачев - Соловей 4:00
09 - архидиакон Роман (Тамберг), иерей Алексий Грачев - Братьям 3:30
10 - архидиакон Роман (Тамберг), иерей Алексий Грачев - Теперь на молитву мы встанем 3:58
11 - архидиакон Роман (Тамберг), иерей Алексий Грачев - Кофейная молитва 3:40
12 - архидиакон Роман (Тамберг), иерей Алексий Грачев - Гостеприимство Авраама 3:28
13 - архидиакон Роман (Тамберг), иерей Алексий Грачев - Осень 5:00
14 - архидиакон Роман (Тамберг), иерей Алексий Грачев - Святая земля 4:45
15 - архидиакон Роман (Тамберг), иерей Алексий Грачев - Ангелу-хранителю 5:34
16 - архидиакон Роман (Тамберг), иерей Алексий Грачев - Духовная беседа 4:10
EAC log
Exact Audio Copy V0.99 prebeta 5 from 4. May 2009

Exact Audio Copy V0.99 prebeta 5 from 4. May 2009

Отчёт EAC об извлечении, выполненном 2. ноября 2009, 21:44

архидиакон Роман (Тамберг), иерей Алексий Грачев / Житейское море

Дисковод: Optiarc DVD RW AD-7191S Adapter: 4 ID: 0

Режим чтения : Достоверность
Использование точного потока : Да
Отключение кэша аудио : Да
Использование указателей C2 : Нет

Коррекция смещения при чтении : 6
Способность читать области Lead-in и Lead-out : Нет
Заполнение пропущенных сэмплов тишиной : Да
Удаление блоков с тишиной в начале и конце : Нет
При вычислениях CRC использовались нулевые сэмплы : Да
Интерфейс : Установленный внешний ASPI-интерфейс

Выходной формат : Внутренние WAV-операции
Формат сэмплов : 44.100 Гц; 16 бит; стерео

TOC извлечённого CD

Трек | Старт | Длительность | Начальный сектор | Конечный сектор
---------------------------------------------------------------------
1 | 0:00.00 | 4:49.23 | 0 | 21697
2 | 4:49.23 | 3:30.37 | 21698 | 37484
3 | 8:19.60 | 3:06.20 | 37485 | 51454
4 | 11:26.05 | 1:53.71 | 51455 | 60000
5 | 13:20.01 | 3:21.33 | 60001 | 75108
6 | 16:41.34 | 3:49.46 | 75109 | 92329
7 | 20:31.05 | 2:44.46 | 92330 | 104675
8 | 23:15.51 | 3:59.60 | 104676 | 122660
9 | 27:15.36 | 3:29.74 | 122661 | 138409
10 | 30:45.35 | 3:58.24 | 138410 | 156283
11 | 34:43.59 | 3:39.24 | 156284 | 172732
12 | 38:23.08 | 3:28.62 | 172733 | 188394
13 | 41:51.70 | 4:59.56 | 188395 | 210875
14 | 46:51.51 | 4:44.41 | 210876 | 232216
15 | 51:36.17 | 5:33.70 | 232217 | 257261
16 | 57:10.12 | 4:10.05 | 257262 | 276016

Характеристики диапазона извлечения и сообщения об ошибках

Выбранный диапазон

Имя файла D:\Музыка православная\Житейское море\архидиакон Роман (Тамберг), иерей Алексий Грачев - Житейское море.wav

Пиковый уровень 99.6 %
Качество диапазона 100.0 %
CRC копии EC8B8B3C
Копирование... OK

Ошибок не произошло

AccurateRip: сводка
Трек 1 нет в базе данных
Трек 2 нет в базе данных
Трек 3 нет в базе данных
Трек 4 нет в базе данных
Трек 5 нет в базе данных
Трек 6 нет в базе данных
Трек 7 нет в базе данных
Трек 8 нет в базе данных
Трек 9 нет в базе данных
Трек 10 нет в базе данных
Трек 11 нет в базе данных
Трек 12 нет в базе данных
Трек 13 нет в базе данных
Трек 14 нет в базе данных
Трек 15 нет в базе данных
Трек 16 нет в базе данных
Ни одного трека нет в базе AccurateRip

Конец отчёта
Download

Войдите на сайт, чтобы увидеть полную информацию.

Как скачивать  ·   Правила трекера

 
Показать сообщения:    
Ответить на тему

Текущее время: 13-Дек 14:47

Часовой пояс: GMT + 4



Вы не можете начинать темы
Вы не можете отвечать на сообщения
Вы не можете редактировать свои сообщения
Вы не можете удалять свои сообщения
Вы не можете голосовать в опросах
Вы не можете прикреплять файлы к сообщениям
Вы не можете скачивать файлы