Loading...
Error

(Церковные хоры.) Мужской Хор "Валаам". "Бородино". Русские солдатские песни и авторские произведения об отечественной войне 1812 года. - 2009, APE (image + .cue), lossless

Ответить на тему
Статистика раздачи
   
 
Автор Сообщение

СЕРГУЛЕТ

Стаж: 12 лет

Сообщений: 2637

Откуда: LA ROMANA

Dominicanrep

post 11-Сен-2009 20:10

[Цитировать] 

Мужской Хор "Валаам" - Бородино (Русские солдатские песни и авторские произведения об отечественной войне 1812 года)
pic
Страна: Россия. "IMLab"
Жанр: Церковные хоры
Год выпуска: 2009
Формат: APE (image + .cue)
Битрейт аудио: lossless
Продолжительность: 01:04:52
Наличие сканов: да
Содержание:
01. Бородино 3:40
02. Со двенадцатого года поседелые орлы... 1:37
03. Наполеон-то, шёл да на Россию воевать... 2:11
04. Не труба трубит... 3:49
05. Эй, донцы-молодцы! 4:49
06. Атаман Платов 3:35
07. Разорённая дорожка 1:42
08. Уж много лет прошло с тех пор 2:54
09. Великая поминка 5:01
10. Он 2:36
11. Ночь темна была 4:47
12. Бородино 5:09
13. За Царя, за Русь Святую! 3:51
14. Наполеон 0:59
15. Хоть Москва в руках французов... 1:09
16. Ликуй, Москва! В Париже - росс! 2:24
17. О славный день! О радостный возврат! 0:44
18. Ты возвратился, Благодатный! 3:54
19. Бородино. Поэма 1:36
20. Слава вам, герои Севера! 5:01
21. Любовь к отчизне 1:14
22. Песня о Кутузове 2:18

EAC log
Exact Audio Copy V0.99 prebeta 5 from 4. May 2009

Отчёт EAC об извлечении, выполненном 11. сентября 2009, 19:34

Хор "Валаам". / Бородино

Дисковод: ASUS BC-1205PT Adapter: 1 ID: 0

Режим чтения : Достоверность
Использование точного потока : Да
Отключение кэша аудио : Да
Использование указателей C2 : Нет

Коррекция смещения при чтении : 667
Способность читать области Lead-in и Lead-out : Нет
Заполнение пропущенных сэмплов тишиной : Да
Удаление блоков с тишиной в начале и конце : Нет
При вычислениях CRC использовались нулевые сэмплы : Да
Интерфейс : Встроенный Win32-интерфейс для Win NT/2000

Выходной формат : Внутренние WAV-операции
Формат сэмплов : 44.100 Гц; 16 бит; стерео

TOC извлечённого CD

Трек | Старт | Длительность | Начальный сектор | Конечный сектор
---------------------------------------------------------------------
1 | 0:00.00 | 3:39.64 | 0 | 16488
2 | 3:39.64 | 1:36.72 | 16489 | 23760
3 | 5:16.61 | 2:10.74 | 23761 | 33584
4 | 7:27.60 | 3:48.71 | 33585 | 50755
5 | 11:16.56 | 4:48.43 | 50756 | 72398
6 | 16:05.24 | 3:34.26 | 72399 | 88474
7 | 19:39.50 | 1:42.00 | 88475 | 96124
8 | 21:21.50 | 2:53.42 | 96125 | 109141
9 | 24:15.17 | 5:00.01 | 109142 | 131642
10 | 29:15.18 | 2:35.03 | 131643 | 143270
11 | 31:50.21 | 4:46.51 | 143271 | 164771
12 | 36:36.72 | 5:08.68 | 164772 | 187939
13 | 41:45.65 | 3:50.02 | 187940 | 205191
14 | 45:35.67 | 0:58.23 | 205192 | 209564
15 | 46:34.15 | 1:08.58 | 209565 | 214722
16 | 47:42.73 | 2:23.26 | 214723 | 225473
17 | 50:06.24 | 0:43.42 | 225474 | 228740
18 | 50:49.66 | 3:54.00 | 228741 | 246290
19 | 54:43.66 | 1:35.73 | 246291 | 253488
20 | 56:19.64 | 5:00.21 | 253489 | 276009
21 | 61:20.10 | 1:13.41 | 276010 | 281525
22 | 62:33.51 | 2:17.54 | 281526 | 291854

Характеристики диапазона извлечения и сообщения об ошибках

Выбранный диапазон

Имя файла C:\Users\Сергулет\Documents\Хор Валаам . - Бородино.wav

Пиковый уровень 100.0 %
Качество диапазона 100.0 %
CRC копии 49C46DC0
Копирование... OK

Ошибок не произошло

Конец отчёта

Обложки и содержание
picpic

Download

Войдите на сайт, чтобы увидеть полную информацию.

Как скачивать  ·   Правила трекера

[Профиль]  [ЛС] 

Юрий-Георгий

Стаж: 11 лет

Сообщений: 44

Russia

post 11-Фев-2010 09:53 (спустя 4 месяца 29 дней)

[Цитировать] 

Очень интересные песнопения! За раздачу благодарствуем!
[Профиль]  [ЛС] 

post 05-Апр-2021 22:27 (спустя 11 лет)

Топик был перенесен из форума Архив аудио-раздач в форум Церковная музыка и церковные хоры (lossless)

CEPBEP4
 
Показать сообщения:    
Ответить на тему

Текущее время: 21-Апр 18:22

Часовой пояс: GMT + 4



Вы не можете начинать темы
Вы не можете отвечать на сообщения
Вы не можете редактировать свои сообщения
Вы не можете удалять свои сообщения
Вы не можете голосовать в опросах
Вы не можете прикреплять файлы к сообщениям
Вы не можете скачивать файлы