Loading...
Error

Библейский сюжет (474 выпуска) (Дмитрий Менделеев) [2002-2020 гг., Биографический, документальный, семейный, TVRip]

Ответить на тему
 
Автор Сообщение

Shumoffon

Стаж: 10 лет

Сообщений: 19

Откуда: Кемерово

Russia

post 24-Апр-2019 17:11

[Цитировать] 

Библейский сюжет (474 выпуска по порядку с датами в названии!!!)

pic
Год выпуска: 2002-2020
Жанр: Биографический, документальный, семейный
Продолжительность: 474 х ~26 минут

Производство: Российская Федерация, Телеканал «Россия — Культура», ИП Менделеев Д. В.

Режиссер: Дмитрий Менделеев

В фильме снимались: Дмитрий Менделеев

Отчёт MediaInfo по трём рандомно взятым файлам
скрытый текст
Общее
Полное имя : D:\Библейский сюжет 460\052. Несение креста. Бах. 13.03.2004.mp4
Формат : MPEG-4
Профиль формата : Base Media
Идентификатор кодека : isom (isom/iso2/avc1/mp41)
Размер файла : 432 Мбайт
Продолжительность : 25 м. 57 с.
Режим общего битрейта : Постоянный
Общий поток : 2325 Кбит/сек
Программа кодирования : Lavf58.12.100

Видео
Идентификатор : 1
Формат : AVC
Формат/Информация : Advanced Video Codec
Профиль формата : High@L4
Настройки формата : CABAC / 1 Ref Frames
Параметр CABAC формата : Да
Параметр RefFrames формата : 1 кадр
Параметр GOP формата : M=1, N=25
Идентификатор кодека : avc1
Идентификатор кодека/Информация : Advanced Video Coding
Продолжительность : 25 м. 57 с.
Вид битрейта : Постоянный
Битрейт : 2000 Кбит/сек
Ширина : 1920 пикселей
Высота : 1080 пикселей
Соотношение сторон : 16:9
Режим частоты кадров : Постоянный
Частота кадров : 25,000 кадров/сек
Цветовое пространство : YUV
Субдискретизация насыщенности : 4:2:0
Битовая глубина : 8 бит
Тип развёртки : Прогрессивная
Бит/(Пиксели*Кадры) : 0.039
Размер потока : 371 Мбайт (86%)
Codec configuration box : avcC

Аудио
Идентификатор : 2
Формат : MPEG Audio
Версия формата : Version 1
Профиль формата : Layer 3
Настройки формата : Joint stereo / MS Stereo
Идентификатор кодека : mp4a-6B
Продолжительность : 25 м. 57 с.
Duration_LastFrame : -1 мс.
Вид битрейта : Постоянный
Битрейт : 320 Кбит/сек
Каналы : 2 канала
Частота : 44,1 КГц
Метод сжатия : С потерями
Размер потока : 59,4 Мбайт (14%)
Библиотека кодирования : LAME3.99.5
Default : Да
AlternateGroup/String : 1

Общее
Полное имя : D:\Библейский сюжет 460\131. Мир. Сервантес. 20.01.2007.mp4
Формат : MPEG-4
Профиль формата : Base Media
Идентификатор кодека : isom (isom/iso2/avc1/mp41)
Размер файла : 424 Мбайт
Продолжительность : 25 м. 38 с.
Режим общего битрейта : Постоянный
Общий поток : 2312 Кбит/сек
Программа кодирования : Lavf58.12.100

Видео
Идентификатор : 1
Формат : AVC
Формат/Информация : Advanced Video Codec
Профиль формата : High@L4
Настройки формата : CABAC / 1 Ref Frames
Параметр CABAC формата : Да
Параметр RefFrames формата : 1 кадр
Параметр GOP формата : M=1, N=25
Идентификатор кодека : avc1
Идентификатор кодека/Информация : Advanced Video Coding
Продолжительность : 25 м. 38 с.
Вид битрейта : Постоянный
Битрейт : 2000 Кбит/сек
Ширина : 1920 пикселей
Высота : 1080 пикселей
Соотношение сторон : 16:9
Режим частоты кадров : Постоянный
Частота кадров : 25,000 кадров/сек
Цветовое пространство : YUV
Субдискретизация насыщенности : 4:2:0
Битовая глубина : 8 бит
Тип развёртки : Прогрессивная
Бит/(Пиксели*Кадры) : 0.039
Размер потока : 364 Мбайт (86%)
Codec configuration box : avcC

Аудио
Идентификатор : 2
Формат : MPEG Audio
Версия формата : Version 1
Профиль формата : Layer 3
Настройки формата : Joint stereo / MS Stereo
Идентификатор кодека : mp4a-6B
Продолжительность : 25 м. 38 с.
Duration_LastFrame : -1 мс.
Вид битрейта : Постоянный
Битрейт : 320 Кбит/сек
Каналы : 2 канала
Частота : 44,1 КГц
Метод сжатия : С потерями
Размер потока : 58,7 Мбайт (14%)
Библиотека кодирования : LAME3.99.5UUUUU7u:m;
Default : Да
AlternateGroup/String : 1

Общее
Полное имя : D:\Библейский сюжет 460\235. Слуга Авраама находит невесту Исааку. Серов. 20.02.2010.mp4
Формат : MPEG-4
Профиль формата : Base Media
Идентификатор кодека : isom (isom/iso2/avc1/mp41)
Размер файла : 424 Мбайт
Продолжительность : 25 м. 31 с.
Режим общего битрейта : Постоянный
Общий поток : 2324 Кбит/сек
Программа кодирования : Lavf58.12.100

Видео
Идентификатор : 1
Формат : AVC
Формат/Информация : Advanced Video Codec
Профиль формата : High@L4
Настройки формата : CABAC / 1 Ref Frames
Параметр CABAC формата : Да
Параметр RefFrames формата : 1 кадр
Параметр GOP формата : M=1, N=25
Идентификатор кодека : avc1
Идентификатор кодека/Информация : Advanced Video Coding
Продолжительность : 25 м. 31 с.
Вид битрейта : Постоянный
Битрейт : 2000 Кбит/сек
Ширина : 1920 пикселей
Высота : 1080 пикселей
Соотношение сторон : 16:9
Режим частоты кадров : Постоянный
Частота кадров : 25,000 кадров/сек
Цветовое пространство : YUV
Субдискретизация насыщенности : 4:2:0
Битовая глубина : 8 бит
Тип развёртки : Прогрессивная
Бит/(Пиксели*Кадры) : 0.039
Размер потока : 365 Мбайт (86%)
Заголовок : Main
Codec configuration box : avcC

Аудио
Идентификатор : 2
Формат : MPEG Audio
Версия формата : Version 1
Профиль формата : Layer 3
Настройки формата : Joint stereo / MS Stereo
Идентификатор кодека : mp4a-6B
Продолжительность : 25 м. 31 с.
Duration_LastFrame : -1 мс.
Вид битрейта : Постоянный
Битрейт : 320 Кбит/сек
Каналы : 2 канала
Частота : 48,0 КГц
Метод сжатия : С потерями
Размер потока : 58,4 Мбайт (14%)
Заголовок : Audio\
Default : Да
AlternateGroup/String : 1
Описание: Обращение великих художников к Библии никогда не заканчивалось только иллюстрацией сюжета, а всегда предполагало личное осмысление. Художник выбирал библейскую историю, чтобы рассказать о себе, о своём времени, чтобы глубже постичь смысл происходящего. Язык священных образов был универсален и понятен, но теперь он для нас всё равно что иностранный. Мы теперь неспособны ясно читать то, что говорили в своих произведениях творцы прошлого. Мы более опираемся на чувственное восприятие, которое всё же является только деталью замысла, лишь внешней его стороной.
«Библейский сюжет» делает попытку соединить «прекрасного разрозненные части», по-другому взглянуть на всемирно известные произведения искусства, рассказать о судьбе их создателей.

История создания релиза
скрытый текст
1. Скачал последнюю на текущий момент редакцию в 460 выпусков у одного пользователя с всеизвестного торрент-трекера.
2. Ещё там же были погодовые релизы-папки другого пользователя.
3. Пересравнил все файлы этих двух пользователей для выявления лучших по скорости битрейта видео.
4. Пофайлово сохранил их в отдельную папку.
5. Переименовал каждый файл на основе информации, полученной от самой студии «Неофит». Формула такова: трёхзначная цифра, точка, название, точка, фамилия, точка, дата выпуска. Кроме даты, после точек пробелы.
6. Сконвертировал всё полученное в размере 460 файлов в видео формата .mp4 с разрешением 1920*1080 с аудио формата .mp3 320 кбит/сек.
7. В итоге переименовал каждый файл на основе названия, фигурирующего непосредственно в видео.
8. Представил на обозрение самый актуальный с точки зрения хронологии, названия/порядка файлов единообразный неразрозненный вариант.
9. Обновление: это релиз для энтузиастов, способных поддержать такой объём. Вот теперь изменения будут проводиться крайне точечно.
10. Дополнительно нужно разобраться со звуком в файле 359.
11. Переусердствовал с переименованием на фамилии в файлах. Не всем придётся по душе. Недовольство названиями (вдруг будет) принимается в ЛС.
12. Проверен каждый символ в названиях на основе Википедии, грамоты.ру и здравой логики. Представляете: если заменить всего один символ, нужно будет заново хешировать.
13. На данный момент это самая выверенная моя версия.
14. Просьба комментарии не оставлять. Мы все и так прекрасно понимаем качество и ценность этой славной передачи.
Скрины
скрытый текст
pic
pic
pic
pic
Список файлов
скрытый текст


pic
Если востребованности в скАчке не будет, буду и дальше смотреть "в одно рыло". Smile

Касательно обновления: Заменён файл 431. Апокалипсис. Лихачёв. 27.01.2018. Добавлены файлы с 460 до 474.

Во время хэширования полетел ещё один внешний жёсткий терабайтник... Раздача откладывается... Если есть скачавшие 460 выпусков, поделитесь в ЛС торрент-файлом, пожалуйста: выкачаю у вас, добавлю новые 25 штук, обновлю раздачу!!!

_________________
Слава БОГУ абсолютно ЗА ВСЁ!
[Профиль]  [ЛС] 
Показать сообщения:    
Ответить на тему

Текущее время: 20-Окт 13:39

Часовой пояс: GMT + 4



Вы не можете начинать темы
Вы не можете отвечать на сообщения
Вы не можете редактировать свои сообщения
Вы не можете удалять свои сообщения
Вы не можете голосовать в опросах
Вы не можете прикреплять файлы к сообщениям
Вы не можете скачивать файлы