Loading...
Error

(Церковная музыка и церковные хоры (lossless).) "Молебный канон св. праведной Анне". Скит св. праведной Анны. Поёт протопсалт Панайотис Каламбакас. - 2004, APE (image + .cue), lossless

Ответить на тему
Статистика раздачи
Качают: [ 1 ]
Скачали: [ 2 ]
   
 
Автор Сообщение

СЕРГУЛЕТ

Стаж: 8 лет 3 месяца

Сообщений: 2639

Откуда: LA ROMANA

Dominicanrep

post 30-Ноя-2009 22:51

[Цитировать] 

"Молебный канон св. праведной Анне". Скит св. праведной Анны. Поёт протопсалт Панайотис Каламбакас.

pic
Страна: Греция.
Жанр: Церковная музыка и церковные хоры (lossless).
Год выпуска: 2004
Формат: APE (image + .cue)
Битрейт аудио: lossless
Продолжительность: 00:48:38
Содержание+Обложки
picpic
EAC log
Exact Audio Copy V0.99 prebeta 5 from 4. May 2009

Отчёт EAC об извлечении, выполненном 30. ноября 2009, 15:48

Поёт протопсалт Панайотис Каламбакас / Молебный канон св. праведной Анне

Дисковод: ASUS BC-1205PT Adapter: 1 ID: 0

Режим чтения : Достоверность
Использование точного потока : Да
Отключение кэша аудио : Да
Использование указателей C2 : Нет

Коррекция смещения при чтении : 667
Способность читать области Lead-in и Lead-out : Нет
Заполнение пропущенных сэмплов тишиной : Да
Удаление блоков с тишиной в начале и конце : Нет
При вычислениях CRC использовались нулевые сэмплы : Да
Интерфейс : Встроенный Win32-интерфейс для Win NT/2000

Выходной формат : Внутренние WAV-операции
Формат сэмплов : 44.100 Гц; 16 бит; стерео

TOC извлечённого CD

Трек | Старт | Длительность | Начальный сектор | Конечный сектор
---------------------------------------------------------------------
1 | 0:00.00 | 0:18.73 | 0 | 1422
2 | 0:18.73 | 1:20.47 | 1423 | 7469
3 | 1:39.45 | 2:59.14 | 7470 | 20908
4 | 4:38.59 | 1:47.12 | 20909 | 28945
5 | 6:25.71 | 4:40.30 | 28946 | 49975
6 | 11:06.26 | 1:11.66 | 49976 | 55366
7 | 12:18.17 | 0:31.03 | 55367 | 57694
8 | 12:49.20 | 7:03.69 | 57695 | 89488
9 | 19:53.14 | 1:11.74 | 89489 | 94887
10 | 21:05.13 | 1:31.65 | 94888 | 101777
11 | 22:37.03 | 2:55.02 | 101778 | 114904
12 | 25:32.05 | 2:00.68 | 114905 | 123972
13 | 27:32.73 | 3:18.47 | 123973 | 138869
14 | 30:51.45 | 5:36.54 | 138870 | 164123
15 | 36:28.24 | 2:30.47 | 164124 | 175420
16 | 38:58.71 | 1:24.24 | 175421 | 181744
17 | 40:23.20 | 0:52.15 | 181745 | 185659
18 | 41:15.35 | 2:54.18 | 185660 | 198727
19 | 44:09.53 | 0:53.16 | 198728 | 202718
20 | 45:02.69 | 3:14.70 | 202719 | 217338
21 | 48:17.64 | 0:19.10 | 217339 | 218773

Характеристики диапазона извлечения и сообщения об ошибках

Выбранный диапазон

Имя файла C:\Поёт протопсалт Панайотис Каламбакас - Молебный канон св. праведной Анне.wav

Пиковый уровень 94.4 %
Качество диапазона 100.0 %
CRC копии 6640B9EA
Копирование... OK

Ошибок не произошло
Download

Войдите для скачивания торрент-файла

Как скачивать  ·   Правила трекера

[Профиль]  [ЛС] 

CEPBEP4

Стаж: 6 лет 3 месяца

Сообщений: 133

Откуда: ОРЕНБУРГ

Russia

post 20-Мар-2015 13:53 (спустя 5 лет 3 месяца)

[Цитировать] 

Спаси Господи!

_________________
pic
pic 100 Мбит/с pic 100 Мбит/с pic
[Профиль]  [ЛС] 
Показать сообщения:    
Ответить на тему

Текущее время: 28-Май 06:56

Часовой пояс: GMT + 4



Вы не можете начинать темы
Вы не можете отвечать на сообщения
Вы не можете редактировать свои сообщения
Вы не можете удалять свои сообщения
Вы не можете голосовать в опросах
Вы не можете прикреплять файлы к сообщениям
Вы не можете скачивать файлы