Loading...
Error

(Песнопения знаменного распева) Знаменные песнопения Древней Руси. Старопоморская наонная традиция (CD 1-10) - 2004, FLAC (image + .cue), lossless

Страницы:  1, 2  След.

Ответить на тему
Статистика раздачи
   
 
Автор Сообщение

etrusk

Стаж: 11 лет

Сообщений: 128

Russia

post 03-Окт-2010 14:05

[Цитировать] 

Знаменные песнопения Древней Руси. Старопоморская наонная традиция (CD 1-10)

pic
Страна: Латвия-Россия
Жанр: Песнопения знаменного распева
Год выпуска: 2004
Формат: FLAC (image + .cue)
Битрейт аудио: lossless
Продолжительность: 12:24:00
Трэклист:
CD 01. Основы знаменной системы
pic
EAC log
Exact Audio Copy V0.99 prebeta 5 from 4. May 2009

Отчёт EAC об извлечении, выполненном 26. сентября 2010, 21:02

С.Пичугин / Основы знаменной системы

Дисковод: Optiarc DVD RW AD-7200S Adapter: 5 ID: 0

Режим чтения : Достоверность
Использование точного потока : Да
Отключение кэша аудио : Да
Использование указателей C2 : Нет

Коррекция смещения при чтении : 48
Способность читать области Lead-in и Lead-out : Нет
Заполнение пропущенных сэмплов тишиной : Да
Удаление блоков с тишиной в начале и конце : Нет
При вычислениях CRC использовались нулевые сэмплы : Да
Интерфейс : Встроенный Win32-интерфейс для Win NT/2000

Выходной формат : Внутренние WAV-операции
Формат сэмплов : 44.100 Гц; 16 бит; стерео

TOC извлечённого CD

Трек | Старт | Длительность | Начальный сектор | Конечный сектор
---------------------------------------------------------------------
1 | 0:00.00 | 0:37.48 | 0 | 2822
2 | 0:37.48 | 1:17.54 | 2823 | 8651
3 | 1:55.27 | 1:32.71 | 8652 | 15622
4 | 3:28.23 | 2:54.13 | 15623 | 28685
5 | 6:22.36 | 1:22.12 | 28686 | 34847
6 | 7:44.48 | 1:38.30 | 34848 | 42227
7 | 9:23.03 | 1:34.29 | 42228 | 49306
8 | 10:57.32 | 2:58.74 | 49307 | 62730
9 | 13:56.31 | 1:38.51 | 62731 | 70131
10 | 15:35.07 | 1:33.43 | 70132 | 77149
11 | 17:08.50 | 2:04.06 | 77150 | 86455
12 | 19:12.56 | 1:36.14 | 86456 | 93669
13 | 20:48.70 | 0:34.27 | 93670 | 96246
14 | 21:23.22 | 4:40.67 | 96247 | 117313
15 | 26:04.14 | 1:27.19 | 117314 | 123857
16 | 27:31.33 | 1:57.69 | 123858 | 132701
17 | 29:29.27 | 0:37.47 | 132702 | 135523
18 | 30:06.74 | 0:15.25 | 135524 | 136673
19 | 30:22.24 | 0:23.70 | 136674 | 138468
20 | 30:46.19 | 1:24.07 | 138469 | 144775
21 | 32:10.26 | 0:38.00 | 144776 | 147625
22 | 32:48.26 | 0:39.44 | 147626 | 150594
23 | 33:27.70 | 0:43.41 | 150595 | 153860
24 | 34:11.36 | 1:13.73 | 153861 | 159408
25 | 35:25.34 | 1:04.12 | 159409 | 164220
26 | 36:29.46 | 1:12.15 | 164221 | 169635
27 | 37:41.61 | 0:49.16 | 169636 | 173326
28 | 38:31.02 | 0:46.17 | 173327 | 176793
29 | 39:17.19 | 0:30.59 | 176794 | 179102
30 | 39:48.03 | 0:28.02 | 179103 | 181204
31 | 40:16.05 | 0:31.53 | 181205 | 183582
32 | 40:47.58 | 1:11.32 | 183583 | 188939
33 | 41:59.15 | 1:02.53 | 188940 | 193642
34 | 43:01.68 | 0:31.15 | 193643 | 195982
35 | 43:33.08 | 0:31.70 | 195983 | 198377
36 | 44:05.03 | 1:13.14 | 198378 | 203866
37 | 45:18.17 | 0:30.21 | 203867 | 206137
38 | 45:48.38 | 0:30.67 | 206138 | 208454

Характеристики диапазона извлечения и сообщения об ошибках

Выбранный диапазон

Имя файла J:\Audio\Знаменные песнопения Древней Руси\CD 01. Основы знаменной системы\С.Пичугин - Основы знаменной системы.wav

Пиковый уровень 94.5 %
Качество диапазона 99.9 %
CRC теста 1A2AC6A8
CRC копии 1A2AC6A8
Копирование... OK

Ошибок не произошло

Конец отчёта
CD 02. Осьмогласие и столповой распев (гласы 1-4)
pic
EAC log
Exact Audio Copy V0.99 prebeta 5 from 4. May 2009

Отчёт EAC об извлечении, выполненном 26. сентября 2010, 23:23

С.Пичугин / Осьмогласие и столповой распев (гласы 1-4)

Дисковод: Optiarc DVD RW AD-7200S Adapter: 5 ID: 0

Режим чтения : Достоверность
Использование точного потока : Да
Отключение кэша аудио : Да
Использование указателей C2 : Нет

Коррекция смещения при чтении : 48
Способность читать области Lead-in и Lead-out : Нет
Заполнение пропущенных сэмплов тишиной : Да
Удаление блоков с тишиной в начале и конце : Нет
При вычислениях CRC использовались нулевые сэмплы : Да
Интерфейс : Встроенный Win32-интерфейс для Win NT/2000

Выходной формат : Внутренние WAV-операции
Формат сэмплов : 44.100 Гц; 16 бит; стерео

TOC извлечённого CD

Трек | Старт | Длительность | Начальный сектор | Конечный сектор
---------------------------------------------------------------------
1 | 0:00.00 | 0:58.57 | 0 | 4406
2 | 0:58.57 | 1:37.29 | 4407 | 11710
3 | 2:36.11 | 1:21.49 | 11711 | 17834
4 | 3:57.60 | 4:00.62 | 17835 | 35896
5 | 7:58.47 | 1:08.55 | 35897 | 41051
6 | 9:07.27 | 1:17.59 | 41052 | 46885
7 | 10:25.11 | 0:37.00 | 46886 | 49660
8 | 11:02.11 | 0:56.03 | 49661 | 53863
9 | 11:58.14 | 0:55.09 | 53864 | 57997
10 | 12:53.23 | 0:54.28 | 57998 | 62075
11 | 13:47.51 | 1:26.17 | 62076 | 68542
12 | 15:13.68 | 2:26.46 | 68543 | 79538
13 | 17:40.39 | 2:04.35 | 79539 | 88873
14 | 19:44.74 | 1:27.54 | 88874 | 95452
15 | 21:12.53 | 0:54.74 | 95453 | 99576
16 | 22:07.52 | 1:13.18 | 99577 | 105069
17 | 23:20.70 | 1:44.16 | 105070 | 112885
18 | 25:05.11 | 1:11.39 | 112886 | 118249
19 | 26:16.50 | 1:41.70 | 118250 | 125894
20 | 27:58.45 | 2:05.26 | 125895 | 135295
21 | 30:03.71 | 1:34.74 | 135296 | 142419
22 | 31:38.70 | 1:56.22 | 142420 | 151141
23 | 33:35.17 | 2:07.71 | 151142 | 160737
24 | 35:43.13 | 3:32.34 | 160738 | 176671
25 | 39:15.47 | 2:18.14 | 176672 | 187035
26 | 41:33.61 | 3:48.36 | 187036 | 204171
27 | 45:22.22 | 1:16.12 | 204172 | 209883
28 | 46:38.34 | 1:15.43 | 209884 | 215551
29 | 47:54.02 | 1:42.33 | 215552 | 223234
30 | 49:36.35 | 4:22.55 | 223235 | 242939
31 | 53:59.15 | 2:49.52 | 242940 | 255666

Характеристики диапазона извлечения и сообщения об ошибках

Выбранный диапазон

Имя файла J:\Audio\Знаменные песнопения Древней Руси\CD 02. Осьмогласие и столповой распев (гласы 1-4)\С.Пичугин - Осьмогласие и столповой распев (гласы 1-4).wav

Пиковый уровень 94.4 %
Качество диапазона 100.0 %
CRC теста 5296D6BB
CRC копии 5296D6BB
Копирование... OK

Ошибок не произошло

Конец отчёта
CD 03. Осьмогласие и столповой распев (гласы 5-8)
pic
EAC log
Exact Audio Copy V0.99 prebeta 5 from 4. May 2009

Отчёт EAC об извлечении, выполненном 27. сентября 2010, 0:25

С.Пичугин / Осьмогласие и столповой распев (гласы 5-8)

Дисковод: Optiarc DVD RW AD-7200S Adapter: 5 ID: 0

Режим чтения : Достоверность
Использование точного потока : Да
Отключение кэша аудио : Да
Использование указателей C2 : Нет

Коррекция смещения при чтении : 48
Способность читать области Lead-in и Lead-out : Нет
Заполнение пропущенных сэмплов тишиной : Да
Удаление блоков с тишиной в начале и конце : Нет
При вычислениях CRC использовались нулевые сэмплы : Да
Интерфейс : Встроенный Win32-интерфейс для Win NT/2000

Выходной формат : Внутренние WAV-операции
Формат сэмплов : 44.100 Гц; 16 бит; стерео

TOC извлечённого CD

Трек | Старт | Длительность | Начальный сектор | Конечный сектор
---------------------------------------------------------------------
1 | 0:02.00 | 2:05.43 | 150 | 9567
2 | 2:07.43 | 0:57.68 | 9568 | 13910
3 | 3:05.36 | 7:06.60 | 13911 | 45920
4 | 10:12.21 | 1:27.63 | 45921 | 52508
5 | 11:40.09 | 1:30.37 | 52509 | 59295
6 | 13:10.46 | 2:07.69 | 59296 | 68889
7 | 15:18.40 | 1:05.08 | 68890 | 73772
8 | 16:23.48 | 1:54.72 | 73773 | 82394
9 | 18:18.45 | 4:59.54 | 82395 | 104873
10 | 23:18.24 | 9:40.12 | 104874 | 148385
11 | 32:58.36 | 2:49.23 | 148386 | 161083
12 | 35:47.59 | 2:50.24 | 161084 | 173857
13 | 38:38.08 | 1:08.33 | 173858 | 178990
14 | 39:46.41 | 2:00.56 | 178991 | 188046
15 | 41:47.22 | 1:46.04 | 188047 | 196000
16 | 43:33.26 | 8:10.70 | 196001 | 232820
17 | 51:44.21 | 5:55.33 | 232821 | 259478

Характеристики диапазона извлечения и сообщения об ошибках

Выбранный диапазон

Имя файла J:\Audio\Знаменные песнопения Древней Руси\CD 03. Осьмогласие и столповой распев (гласы 5-8)\С.Пичугин - Осьмогласие и столповой распев (гласы 5-8).wav

Пиковый уровень 99.6 %
Качество диапазона 100.0 %
CRC теста A6C5F098
CRC копии A6C5F098
Копирование... OK

Ошибок не произошло

Конец отчёта
CD 04.1. Самогласны
pic
EAC log
Exact Audio Copy V0.99 prebeta 5 from 4. May 2009

Отчёт EAC об извлечении, выполненном 27. сентября 2010, 1:10

С.Пичугин / Самогласны

Дисковод: Optiarc DVD RW AD-7200S Adapter: 5 ID: 0

Режим чтения : Достоверность
Использование точного потока : Да
Отключение кэша аудио : Да
Использование указателей C2 : Нет

Коррекция смещения при чтении : 48
Способность читать области Lead-in и Lead-out : Нет
Заполнение пропущенных сэмплов тишиной : Да
Удаление блоков с тишиной в начале и конце : Нет
При вычислениях CRC использовались нулевые сэмплы : Да
Интерфейс : Встроенный Win32-интерфейс для Win NT/2000

Выходной формат : Внутренние WAV-операции
Формат сэмплов : 44.100 Гц; 16 бит; стерео

TOC извлечённого CD

Трек | Старт | Длительность | Начальный сектор | Конечный сектор
---------------------------------------------------------------------
1 | 0:02.00 | 1:23.42 | 150 | 6416
2 | 1:25.42 | 1:12.40 | 6417 | 11856
3 | 2:38.07 | 1:10.65 | 11857 | 17171
4 | 3:48.72 | 2:04.59 | 17172 | 26530
5 | 5:53.56 | 1:31.73 | 26531 | 33428
6 | 7:25.54 | 1:27.69 | 33429 | 40022
7 | 8:53.48 | 1:29.37 | 40023 | 46734
8 | 10:23.10 | 1:12.12 | 46735 | 52146
9 | 11:35.22 | 1:20.17 | 52147 | 58163
10 | 12:55.39 | 2:04.19 | 58164 | 67482
11 | 14:59.58 | 1:54.49 | 67483 | 76081
12 | 16:54.32 | 1:31.39 | 76082 | 82945
13 | 18:25.71 | 2:06.19 | 82946 | 92414
14 | 20:32.15 | 1:15.64 | 92415 | 98103
15 | 21:48.04 | 1:19.35 | 98104 | 104063
16 | 23:07.39 | 1:59.55 | 104064 | 113043
17 | 25:07.19 | 1:32.14 | 113044 | 119957
18 | 26:39.33 | 1:18.27 | 119958 | 125834
19 | 27:57.60 | 1:46.59 | 125835 | 133843
20 | 29:44.44 | 1:17.47 | 133844 | 139665
21 | 31:02.16 | 1:08.38 | 139666 | 144803
22 | 32:10.54 | 1:37.69 | 144804 | 152147
23 | 33:48.48 | 1:21.15 | 152148 | 158237
24 | 35:09.63 | 1:10.14 | 158238 | 163501
25 | 36:20.02 | 1:55.45 | 163502 | 172171

Характеристики диапазона извлечения и сообщения об ошибках

Выбранный диапазон

Имя файла J:\Audio\Знаменные песнопения Древней Руси\CD 04.1. Самогласны\С.Пичугин - Самогласны.wav

Пиковый уровень 100.0 %
Качество диапазона 100.0 %
CRC теста 1F96F09A
CRC копии 1F96F09A
Копирование... OK

Ошибок не произошло

Конец отчёта
CD 04.2. Подобны
pic
EAC log
Exact Audio Copy V0.99 prebeta 5 from 4. May 2009

Отчёт EAC об извлечении, выполненном 23. сентября 2010, 5:18

С.Пичугин / Подобны

Дисковод: Optiarc DVD RW AD-7200S Adapter: 5 ID: 0

Режим чтения : Достоверность
Использование точного потока : Да
Отключение кэша аудио : Да
Использование указателей C2 : Нет

Коррекция смещения при чтении : 48
Способность читать области Lead-in и Lead-out : Да
Заполнение пропущенных сэмплов тишиной : Да
Удаление блоков с тишиной в начале и конце : Нет
При вычислениях CRC использовались нулевые сэмплы : Нет
Интерфейс : Встроенный Win32-интерфейс для Win NT/2000

Выходной формат : Внутренние WAV-операции
Формат сэмплов : 44.100 Гц; 16 бит; стерео

TOC извлечённого CD

Трек | Старт | Длительность | Начальный сектор | Конечный сектор
---------------------------------------------------------------------
1 | 0:02.00 | 1:15.57 | 150 | 5831
2 | 1:17.57 | 1:11.53 | 5832 | 11209
3 | 2:29.35 | 0:48.45 | 11210 | 14854
4 | 3:18.05 | 1:26.71 | 14855 | 21375
5 | 4:45.01 | 1:26.66 | 21376 | 27891
6 | 6:11.67 | 1:15.00 | 27892 | 33516
7 | 7:26.67 | 1:00.34 | 33517 | 38050
8 | 8:27.26 | 0:41.36 | 38051 | 41161
9 | 9:08.62 | 1:14.44 | 41162 | 46755
10 | 10:23.31 | 2:13.58 | 46756 | 56788
11 | 12:37.14 | 1:24.26 | 56789 | 63114
12 | 14:01.40 | 1:11.63 | 63115 | 68502
13 | 15:13.28 | 1:25.70 | 68503 | 74947
14 | 16:39.23 | 1:25.60 | 74948 | 81382
15 | 18:05.08 | 1:51.59 | 81383 | 89766
16 | 19:56.67 | 1:19.22 | 89767 | 95713
17 | 21:16.14 | 1:13.62 | 95714 | 101250
18 | 22:30.01 | 1:51.39 | 101251 | 109614
19 | 24:21.40 | 1:18.44 | 109615 | 115508
20 | 25:40.09 | 1:21.28 | 115509 | 121611
21 | 27:01.37 | 1:32.73 | 121612 | 128584
22 | 28:34.35 | 1:27.54 | 128585 | 135163
23 | 30:02.14 | 2:19.34 | 135164 | 145622
24 | 32:21.48 | 1:52.49 | 145623 | 154071
25 | 34:14.22 | 2:04.01 | 154072 | 163372
26 | 36:18.23 | 2:34.56 | 163373 | 174978
27 | 38:53.04 | 2:12.39 | 174979 | 184917
28 | 41:05.43 | 1:31.54 | 184918 | 191796
29 | 42:37.22 | 2:08.43 | 191797 | 201439
30 | 44:45.65 | 2:04.17 | 201440 | 210756
31 | 46:50.07 | 1:37.42 | 210757 | 218073
32 | 48:27.49 | 1:12.46 | 218074 | 223519
33 | 49:40.20 | 0:58.74 | 223520 | 227943
34 | 50:39.19 | 0:56.16 | 227944 | 232159
35 | 51:35.35 | 0:48.54 | 232160 | 235813
36 | 52:24.14 | 1:12.47 | 235814 | 241260
37 | 53:36.61 | 2:10.59 | 241261 | 251069
38 | 55:47.45 | 1:36.51 | 251070 | 258320
39 | 57:24.21 | 1:16.27 | 258321 | 264047
40 | 58:40.48 | 1:57.50 | 264048 | 272872
41 | 60:38.23 | 1:57.32 | 272873 | 281679
42 | 62:35.55 | 1:29.34 | 281680 | 288388
43 | 64:05.14 | 1:21.48 | 288389 | 294511

Характеристики диапазона извлечения и сообщения об ошибках

Выбранный диапазон

Имя файла J:\Audio\CD 4.2. Подобны\version2\С.Пичугин - Подобны.wav

Подозрительная позиция 0:22:38
Подозрительная позиция 0:22:50
Подозрительная позиция 0:22:54
Подозрительная позиция 0:23:04 - 0:23:05
Подозрительная позиция 0:24:03
Подозрительная позиция 0:24:24
Подозрительная позиция 0:24:28
Подозрительная позиция 0:24:30
Подозрительная позиция 0:24:32
Подозрительная позиция 0:24:34
Подозрительная позиция 0:24:36
Подозрительная позиция 0:24:43 - 0:24:44
Подозрительная позиция 0:24:48
Подозрительная позиция 0:24:50 - 0:24:55
Подозрительная позиция 0:24:57 - 0:24:58
Подозрительная позиция 0:25:00
Подозрительная позиция 0:25:02 - 0:25:03
Подозрительная позиция 0:25:07
Подозрительная позиция 0:25:11 - 0:25:14
Подозрительная позиция 0:25:16
Подозрительная позиция 0:25:24 - 0:25:25
Подозрительная позиция 0:25:27 - 0:25:30
Подозрительная позиция 0:25:32
Подозрительная позиция 0:25:34
Подозрительная позиция 0:25:41 - 0:25:43
Подозрительная позиция 0:25:45
Подозрительная позиция 0:25:50 - 0:25:52
Подозрительная позиция 0:25:54
Подозрительная позиция 0:25:58
Подозрительная позиция 0:26:00
Подозрительная позиция 0:26:03
Подозрительная позиция 0:26:05 - 0:26:06
Подозрительная позиция 0:26:09
Подозрительная позиция 0:26:11 - 0:26:12
Подозрительная позиция 0:26:18
Подозрительная позиция 0:26:23 - 0:26:24
Подозрительная позиция 0:26:34 - 0:26:35
Подозрительная позиция 0:26:41
Подозрительная позиция 0:27:10
Подозрительная позиция 0:27:13
Подозрительная позиция 0:27:24
Подозрительная позиция 0:27:27
Подозрительная позиция 0:27:35
Подозрительная позиция 0:27:46
Подозрительная позиция 0:30:05
Подозрительная позиция 0:30:12
Подозрительная позиция 0:30:16
Подозрительная позиция 0:30:18
Подозрительная позиция 0:30:22 - 0:30:23
Подозрительная позиция 0:30:27
Подозрительная позиция 0:30:29 - 0:30:30
Подозрительная позиция 0:30:32 - 0:30:37
Подозрительная позиция 0:30:39 - 0:30:42
Подозрительная позиция 0:30:44
Подозрительная позиция 0:30:46 - 0:30:52
Подозрительная позиция 0:30:55 - 0:30:56
Подозрительная позиция 0:30:58
Подозрительная позиция 0:31:00
Подозрительная позиция 0:31:02 - 0:31:05
Подозрительная позиция 0:31:07 - 0:31:10
Подозрительная позиция 0:31:12 - 0:31:25
Подозрительная позиция 0:31:27
Подозрительная позиция 0:31:29 - 0:31:33
Подозрительная позиция 0:31:35 - 0:31:36
Подозрительная позиция 0:31:38 - 0:31:41
Подозрительная позиция 0:31:44
Подозрительная позиция 0:31:46 - 0:31:47
Подозрительная позиция 0:31:51 - 0:31:53
Подозрительная позиция 0:31:58
Подозрительная позиция 0:32:00
Подозрительная позиция 0:32:03
Подозрительная позиция 0:32:06
Подозрительная позиция 0:32:08
Подозрительная позиция 0:32:12
Подозрительная позиция 0:32:16 - 0:32:20
Подозрительная позиция 0:32:22 - 0:32:26
Подозрительная позиция 0:32:28
Подозрительная позиция 0:32:30 - 0:32:31
Подозрительная позиция 0:32:34
Подозрительная позиция 0:32:36 - 0:32:41
Подозрительная позиция 0:32:44
Подозрительная позиция 0:32:47 - 0:32:48
Подозрительная позиция 0:32:52 - 0:32:54
Подозрительная позиция 0:32:56
Подозрительная позиция 0:32:59
Подозрительная позиция 0:33:07
Подозрительная позиция 0:33:09
Подозрительная позиция 0:33:11 - 0:33:16
Подозрительная позиция 0:33:19 - 0:33:29
Подозрительная позиция 0:33:31 - 0:33:52
Подозрительная позиция 0:33:54 - 0:34:09
Подозрительная позиция 0:34:11 - 0:34:21
Подозрительная позиция 0:34:23 - 0:34:54
Подозрительная позиция 0:34:56 - 0:38:06
Подозрительная позиция 0:38:08 - 0:42:57
Подозрительная позиция 0:42:59 - 0:43:01
Подозрительная позиция 0:43:03 - 0:44:07
Подозрительная позиция 0:44:09 - 0:44:22
Подозрительная позиция 0:44:24 - 0:45:28
Подозрительная позиция 0:45:30 - 0:45:42
Подозрительная позиция 0:45:44 - 0:46:00
Подозрительная позиция 0:46:02 - 0:46:08
Подозрительная позиция 0:46:10 - 0:46:12
Подозрительная позиция 0:46:14 - 0:46:16
Подозрительная позиция 0:46:18 - 0:46:23
Подозрительная позиция 0:46:25 - 0:46:28
Подозрительная позиция 0:46:30 - 0:46:36
Подозрительная позиция 0:46:38 - 0:46:40
Подозрительная позиция 0:46:42 - 0:46:55
Подозрительная позиция 0:46:57
Подозрительная позиция 0:46:59 - 0:47:10
Подозрительная позиция 0:47:12 - 0:48:36
Подозрительная позиция 0:48:38 - 0:50:15
Подозрительная позиция 0:50:19 - 0:50:21
Подозрительная позиция 0:50:23
Подозрительная позиция 0:50:25 - 0:50:26
Подозрительная позиция 0:50:28 - 0:50:47
Подозрительная позиция 0:50:49 - 0:50:52
Подозрительная позиция 0:50:54 - 0:51:01
Подозрительная позиция 0:51:03
Подозрительная позиция 0:51:05 - 0:51:06
Подозрительная позиция 0:51:08 - 0:51:19
Подозрительная позиция 0:51:22
Подозрительная позиция 0:51:24 - 0:51:26
Подозрительная позиция 0:51:28 - 0:51:36
Подозрительная позиция 0:51:38
Подозрительная позиция 0:51:41 - 0:51:42
Подозрительная позиция 0:51:44 - 0:51:49
Подозрительная позиция 0:51:53 - 0:51:56
Подозрительная позиция 0:51:58
Подозрительная позиция 0:52:01 - 0:52:04
Подозрительная позиция 0:52:06
Подозрительная позиция 0:52:08 - 0:52:11
Подозрительная позиция 0:52:15
Подозрительная позиция 0:52:18
Подозрительная позиция 0:52:20 - 0:52:25
Подозрительная позиция 0:52:27 - 0:52:28
Подозрительная позиция 0:52:30 - 0:52:31
Подозрительная позиция 0:52:34 - 0:52:35
Подозрительная позиция 0:52:37 - 0:52:39
Подозрительная позиция 0:52:42 - 0:52:44
Подозрительная позиция 0:52:46 - 0:52:48
Подозрительная позиция 0:52:53
Подозрительная позиция 0:52:57 - 0:52:58
Подозрительная позиция 0:53:00
Подозрительная позиция 0:53:04
Подозрительная позиция 0:53:07
Подозрительная позиция 0:53:11
Подозрительная позиция 0:53:15
Подозрительная позиция 0:53:18 - 0:53:19
Подозрительная позиция 0:53:24 - 0:53:25
Подозрительная позиция 0:53:29 - 0:53:31
Подозрительная позиция 0:53:34
Подозрительная позиция 0:53:36 - 0:53:39
Подозрительная позиция 0:53:43 - 0:53:45
Подозрительная позиция 0:53:48 - 0:53:49
Подозрительная позиция 0:53:51
Подозрительная позиция 0:53:53
Подозрительная позиция 0:53:56
Подозрительная позиция 0:53:58
Подозрительная позиция 0:54:04 - 0:54:05
Подозрительная позиция 0:54:07
Подозрительная позиция 0:54:10 - 0:54:13
Подозрительная позиция 0:54:15 - 0:54:17
Подозрительная позиция 0:54:19 - 0:54:22
Подозрительная позиция 0:54:24 - 0:54:25
Подозрительная позиция 0:54:27 - 0:54:28
Подозрительная позиция 0:54:31 - 0:54:33
Подозрительная позиция 0:54:35
Подозрительная позиция 0:54:38 - 0:54:40
Подозрительная позиция 0:54:42
Подозрительная позиция 0:54:44
Подозрительная позиция 0:54:47 - 0:54:49
Подозрительная позиция 0:54:53
Подозрительная позиция 0:54:55 - 0:54:57
Подозрительная позиция 0:55:00 - 0:55:01
Подозрительная позиция 0:56:15
Подозрительная позиция 0:56:18
Подозрительная позиция 0:56:35
Подозрительная позиция 0:57:01
Подозрительная позиция 0:57:07
Подозрительная позиция 1:05:26

Пиковый уровень 100.0 %
Качество диапазона 95.2 %
CRC теста 152A8C12
CRC копии 28942510
Копирование завершено

Были ошибки

Конец отчёта
На этом диске были ошибки (собственно, весь диск сплошная ошибка). Дополнительно выложил спектр и АЧХ из Tau Analyzer. Такая же АЧХ типична и для остальных дисков.
CD 05. Попевки (гласы 1-8)
pic
EAC log
Exact Audio Copy V0.99 prebeta 5 from 4. May 2009

Отчёт EAC об извлечении, выполненном 23. сентября 2010, 19:00

С.Пичугин / Попевки (гласы 1-8)

Дисковод: Optiarc DVD RW AD-7200S Adapter: 5 ID: 0

Режим чтения : Достоверность
Использование точного потока : Да
Отключение кэша аудио : Да
Использование указателей C2 : Нет

Коррекция смещения при чтении : 48
Способность читать области Lead-in и Lead-out : Нет
Заполнение пропущенных сэмплов тишиной : Да
Удаление блоков с тишиной в начале и конце : Нет
При вычислениях CRC использовались нулевые сэмплы : Да
Интерфейс : Встроенный Win32-интерфейс для Win NT/2000

Выходной формат : Внутренние WAV-операции
Формат сэмплов : 44.100 Гц; 16 бит; стерео

TOC извлечённого CD

Трек | Старт | Длительность | Начальный сектор | Конечный сектор
---------------------------------------------------------------------
1 | 0:02.00 | 8:51.28 | 150 | 40002
2 | 8:53.28 | 8:18.15 | 40003 | 77367
3 | 17:11.43 | 3:44.19 | 77368 | 94186
4 | 20:55.62 | 5:20.58 | 94187 | 118244
5 | 26:16.45 | 6:10.32 | 118245 | 146026
6 | 32:27.02 | 5:14.05 | 146027 | 169581
7 | 37:41.07 | 3:26.34 | 169582 | 185065
8 | 41:07.41 | 4:29.48 | 185066 | 205288

Характеристики диапазона извлечения и сообщения об ошибках

Выбранный диапазон

Имя файла J:\Audio\CD 5. Попевки (гласы 1-8)\С.Пичугин - Попевки (гласы 1-8).wav

Пиковый уровень 100.0 %
Качество диапазона 99.9 %
CRC теста D0B6DBCA
CRC копии D0B6DBCA
Копирование... OK

Ошибок не произошло

Конец отчёта
CD 06. Погласицы чтения
pic
EAC log
Exact Audio Copy V0.99 prebeta 5 from 4. May 2009

Отчёт EAC об извлечении, выполненном 23. сентября 2010, 19:59

С.Пичугин / Погласицы чтения

Дисковод: Optiarc DVD RW AD-7200S Adapter: 5 ID: 0

Режим чтения : Достоверность
Использование точного потока : Да
Отключение кэша аудио : Да
Использование указателей C2 : Нет

Коррекция смещения при чтении : 48
Способность читать области Lead-in и Lead-out : Нет
Заполнение пропущенных сэмплов тишиной : Да
Удаление блоков с тишиной в начале и конце : Нет
При вычислениях CRC использовались нулевые сэмплы : Да
Интерфейс : Встроенный Win32-интерфейс для Win NT/2000

Выходной формат : Внутренние WAV-операции
Формат сэмплов : 44.100 Гц; 16 бит; стерео

TOC извлечённого CD

Трек | Старт | Длительность | Начальный сектор | Конечный сектор
---------------------------------------------------------------------
1 | 0:02.00 | 1:51.49 | 150 | 8523
2 | 1:53.49 | 1:22.15 | 8524 | 14688
3 | 3:15.64 | 1:18.05 | 14689 | 20543
4 | 4:33.69 | 0:34.61 | 20544 | 23154
5 | 5:08.55 | 2:07.42 | 23155 | 32721
6 | 7:16.22 | 0:58.69 | 32722 | 37140
7 | 8:15.16 | 3:05.44 | 37141 | 51059
8 | 11:20.60 | 1:58.65 | 51060 | 59974
9 | 13:19.50 | 2:43.44 | 59975 | 72243
10 | 16:03.19 | 2:11.07 | 72244 | 82075
11 | 18:14.26 | 2:34.53 | 82076 | 93678
12 | 20:49.04 | 3:30.43 | 93679 | 109471
13 | 24:19.47 | 3:02.15 | 109472 | 123136
14 | 27:21.62 | 0:52.12 | 123137 | 127048
15 | 28:13.74 | 1:16.13 | 127049 | 132761
16 | 29:30.12 | 0:40.71 | 132762 | 135832
17 | 30:11.08 | 2:26.45 | 135833 | 146827
18 | 32:37.53 | 1:55.72 | 146828 | 155524
19 | 34:33.50 | 1:37.39 | 155525 | 162838
20 | 36:11.14 | 2:43.52 | 162839 | 175115
21 | 38:54.66 | 3:40.53 | 175116 | 191668
22 | 42:35.44 | 3:20.65 | 191669 | 206733
23 | 45:56.34 | 4:11.68 | 206734 | 225626
24 | 50:08.27 | 3:16.67 | 225627 | 240393
25 | 53:25.19 | 4:14.14 | 240394 | 259457
26 | 57:39.33 | 3:26.14 | 259458 | 274921
27 | 61:05.47 | 3:25.60 | 274922 | 290356
28 | 64:31.32 | 0:34.38 | 290357 | 292944
29 | 65:05.70 | 1:09.35 | 292945 | 298154
30 | 66:15.30 | 1:16.48 | 298155 | 303902
31 | 67:32.03 | 1:25.14 | 303903 | 310291
32 | 68:57.17 | 1:18.28 | 310292 | 316169
33 | 70:15.45 | 1:34.71 | 316170 | 323290

Характеристики диапазона извлечения и сообщения об ошибках

Выбранный диапазон

Имя файла J:\Audio\CD 6. Погласицы чтения\С.Пичугин - Погласицы чтения.wav

Пиковый уровень 100.0 %
Качество диапазона 100.0 %
CRC теста 107753CF
CRC копии 107753CF
Копирование... OK

Ошибок не произошло

Конец отчёта
CD 07. Песнопения Обихода, часть 1
pic
EAC log
Exact Audio Copy V0.99 prebeta 5 from 4. May 2009

Отчёт EAC об извлечении, выполненном 23. сентября 2010, 21:10

С.Пичугин / Песнопения Обихода, часть 1

Дисковод: Optiarc DVD RW AD-7200S Adapter: 5 ID: 0

Режим чтения : Достоверность
Использование точного потока : Да
Отключение кэша аудио : Да
Использование указателей C2 : Нет

Коррекция смещения при чтении : 48
Способность читать области Lead-in и Lead-out : Нет
Заполнение пропущенных сэмплов тишиной : Да
Удаление блоков с тишиной в начале и конце : Нет
При вычислениях CRC использовались нулевые сэмплы : Да
Интерфейс : Встроенный Win32-интерфейс для Win NT/2000

Выходной формат : Внутренние WAV-операции
Формат сэмплов : 44.100 Гц; 16 бит; стерео

TOC извлечённого CD

Трек | Старт | Длительность | Начальный сектор | Конечный сектор
---------------------------------------------------------------------
1 | 0:00.00 | 1:18.23 | 0 | 5872
2 | 1:18.23 | 14:52.74 | 5873 | 72846
3 | 16:11.22 | 7:26.74 | 72847 | 106370
4 | 23:38.21 | 6:38.58 | 106371 | 136278
5 | 30:17.04 | 1:01.43 | 136279 | 140896
6 | 31:18.47 | 0:44.68 | 140897 | 144264
7 | 32:03.40 | 1:05.19 | 144265 | 149158
8 | 33:08.59 | 1:08.64 | 149159 | 154322
9 | 34:17.48 | 0:52.03 | 154323 | 158225
10 | 35:09.51 | 1:03.68 | 158226 | 163018
11 | 36:13.44 | 1:04.34 | 163019 | 167852
12 | 37:18.03 | 2:57.03 | 167853 | 181130
13 | 40:15.06 | 2:59.64 | 181131 | 194619
14 | 43:14.70 | 1:23.24 | 194620 | 200868
15 | 44:38.19 | 1:49.68 | 200869 | 209111
16 | 46:28.12 | 1:19.09 | 209112 | 215045
17 | 47:47.21 | 1:23.21 | 215046 | 221291
18 | 49:10.42 | 0:46.10 | 221292 | 224751
19 | 49:56.52 | 1:24.01 | 224752 | 231052
20 | 51:20.53 | 0:56.47 | 231053 | 235299
21 | 52:17.25 | 1:44.48 | 235300 | 243147
22 | 54:01.73 | 5:05.32 | 243148 | 266054
23 | 59:07.30 | 4:01.74 | 266055 | 284203
24 | 63:09.29 | 4:08.46 | 284204 | 302849

Характеристики диапазона извлечения и сообщения об ошибках

Выбранный диапазон

Имя файла J:\Audio\Знаменные песнопения Древней Руси\CD 7. Песнопения Обихода, часть 1\С.Пичугин - Песнопения Обихода, часть 1.wav

Пиковый уровень 95.0 %
Качество диапазона 100.0 %
CRC теста CA66CB3B
CRC копии CA66CB3B
Копирование... OK

Ошибок не произошло

Конец отчёта
CD 08. Песнопения Обихода, часть 2
pic
EAC log
Exact Audio Copy V0.99 prebeta 5 from 4. May 2009

Отчёт EAC об извлечении, выполненном 23. сентября 2010, 22:59

С.Пичугин / Песнопения Обихода, часть 2

Дисковод: Optiarc DVD RW AD-7200S Adapter: 5 ID: 0

Режим чтения : Достоверность
Использование точного потока : Да
Отключение кэша аудио : Да
Использование указателей C2 : Нет

Коррекция смещения при чтении : 48
Способность читать области Lead-in и Lead-out : Нет
Заполнение пропущенных сэмплов тишиной : Да
Удаление блоков с тишиной в начале и конце : Нет
При вычислениях CRC использовались нулевые сэмплы : Да
Интерфейс : Встроенный Win32-интерфейс для Win NT/2000

Выходной формат : Внутренние WAV-операции
Формат сэмплов : 44.100 Гц; 16 бит; стерео

TOC извлечённого CD

Трек | Старт | Длительность | Начальный сектор | Конечный сектор
---------------------------------------------------------------------
1 | 0:00.00 | 6:42.00 | 0 | 30149
2 | 6:42.00 | 8:44.11 | 30150 | 69460
3 | 15:26.11 | 8:58.69 | 69461 | 109879
4 | 24:25.05 | 5:02.05 | 109880 | 132534
5 | 29:27.10 | 6:27.05 | 132535 | 161564
6 | 35:54.15 | 2:05.30 | 161565 | 170969
7 | 37:59.45 | 3:48.25 | 170970 | 188094
8 | 41:47.70 | 9:18.51 | 188095 | 229995
9 | 51:06.46 | 3:56.58 | 229996 | 247753
10 | 55:03.29 | 1:25.35 | 247754 | 254163
11 | 56:28.64 | 1:04.03 | 254164 | 258966
12 | 57:32.67 | 2:22.38 | 258967 | 269654
13 | 59:55.30 | 3:57.54 | 269655 | 287483
14 | 63:53.09 | 2:34.21 | 287484 | 299054
15 | 66:27.30 | 8:11.17 | 299055 | 335896
16 | 74:38.47 | 0:49.27 | 335897 | 339598
17 | 75:27.74 | 2:42.23 | 339599 | 351771
18 | 78:10.22 | 1:29.50 | 351772 | 358496

Характеристики диапазона извлечения и сообщения об ошибках

Выбранный диапазон

Имя файла J:\Audio\Знаменные песнопения Древней Руси\CD 8. Песнопения Обихода, часть 2\С.Пичугин - Песнопения Обихода, часть 2.wav

Пиковый уровень 93.2 %
Качество диапазона 99.9 %
CRC теста 74B57F87
CRC копии B47FAC98
Копирование... OK

Ошибок не произошло

Конец отчёта
На этом диске не совпадают CRC теста и копии.
CD 09. Песнопения Обихода, часть 3
pic
EAC log
Exact Audio Copy V0.99 prebeta 5 from 4. May 2009

Отчёт EAC об извлечении, выполненном 23. сентября 2010, 23:39

С.Пичугин / Песнопения Обихода, часть 3

Дисковод: Optiarc DVD RW AD-7200S Adapter: 5 ID: 0

Режим чтения : Достоверность
Использование точного потока : Да
Отключение кэша аудио : Да
Использование указателей C2 : Нет

Коррекция смещения при чтении : 48
Способность читать области Lead-in и Lead-out : Нет
Заполнение пропущенных сэмплов тишиной : Да
Удаление блоков с тишиной в начале и конце : Нет
При вычислениях CRC использовались нулевые сэмплы : Да
Интерфейс : Встроенный Win32-интерфейс для Win NT/2000

Выходной формат : Внутренние WAV-операции
Формат сэмплов : 44.100 Гц; 16 бит; стерео

TOC извлечённого CD

Трек | Старт | Длительность | Начальный сектор | Конечный сектор
---------------------------------------------------------------------
1 | 0:00.00 | 1:53.10 | 0 | 8484
2 | 1:53.10 | 2:53.48 | 8485 | 21507
3 | 4:46.58 | 1:48.65 | 21508 | 29672
4 | 6:35.48 | 0:50.59 | 29673 | 33481
5 | 7:26.32 | 2:10.64 | 33482 | 43295
6 | 9:37.21 | 2:06.39 | 43296 | 52784
7 | 11:43.60 | 1:28.11 | 52785 | 59395
8 | 13:11.71 | 1:07.32 | 59396 | 64452
9 | 14:19.28 | 1:52.02 | 64453 | 72854
10 | 16:11.30 | 1:36.45 | 72855 | 80099
11 | 17:48.00 | 0:52.00 | 80100 | 83999
12 | 18:40.00 | 4:35.67 | 84000 | 104691
13 | 23:15.67 | 1:58.33 | 104692 | 113574
14 | 25:14.25 | 0:54.21 | 113575 | 117645
15 | 26:08.46 | 0:29.28 | 117646 | 119848
16 | 26:37.74 | 2:38.11 | 119849 | 131709
17 | 29:16.10 | 0:21.33 | 131710 | 133317
18 | 29:37.43 | 2:32.35 | 133318 | 144752
19 | 32:10.03 | 3:19.03 | 144753 | 159680
20 | 35:29.06 | 1:24.53 | 159681 | 166033
21 | 36:53.59 | 0:57.16 | 166034 | 170324
22 | 37:51.00 | 1:15.18 | 170325 | 175967
23 | 39:06.18 | 1:03.05 | 175968 | 180697
24 | 40:09.23 | 0:41.09 | 180698 | 183781
25 | 40:50.32 | 1:52.35 | 183782 | 192216
26 | 42:42.67 | 0:46.64 | 192217 | 195730
27 | 43:29.56 | 1:04.67 | 195731 | 200597
28 | 44:34.48 | 1:25.38 | 200598 | 207010
29 | 46:00.11 | 1:21.41 | 207011 | 213126
30 | 47:21.52 | 1:30.72 | 213127 | 219948
31 | 48:52.49 | 0:58.20 | 219949 | 224318
32 | 49:50.69 | 1:05.73 | 224319 | 229266
33 | 50:56.67 | 1:34.03 | 229267 | 236319
34 | 52:30.70 | 0:56.41 | 236320 | 240560
35 | 53:27.36 | 0:36.39 | 240561 | 243299
36 | 54:04.00 | 1:38.46 | 243300 | 250695
37 | 55:42.46 | 1:19.00 | 250696 | 256620
38 | 57:01.46 | 1:46.52 | 256621 | 264622
39 | 58:48.23 | 3:01.00 | 264623 | 278197

Характеристики диапазона извлечения и сообщения об ошибках

Выбранный диапазон

Имя файла J:\Audio\Знаменные песнопения Древней Руси\CD 9. Песнопения Обихода, часть 3\С.Пичугин - Песнопения Обихода, часть 3.wav

Пиковый уровень 93.4 %
Качество диапазона 100.0 %
CRC теста 0AAE697C
CRC копии 0AAE697C
Копирование... OK

Ошибок не произошло

Конец отчёта
CD 10. Октай (2 CD)
pic
EAC log CD 1
Exact Audio Copy V0.99 prebeta 5 from 4. May 2009

Отчёт EAC об извлечении, выполненном 24. сентября 2010, 0:24

С.Пичугин / Октай (1-4 гласы)

Дисковод: Optiarc DVD RW AD-7200S Adapter: 5 ID: 0

Режим чтения : Достоверность
Использование точного потока : Да
Отключение кэша аудио : Да
Использование указателей C2 : Нет

Коррекция смещения при чтении : 48
Способность читать области Lead-in и Lead-out : Нет
Заполнение пропущенных сэмплов тишиной : Да
Удаление блоков с тишиной в начале и конце : Нет
При вычислениях CRC использовались нулевые сэмплы : Да
Интерфейс : Встроенный Win32-интерфейс для Win NT/2000

Выходной формат : Внутренние WAV-операции
Формат сэмплов : 44.100 Гц; 16 бит; стерео

TOC извлечённого CD

Трек | Старт | Длительность | Начальный сектор | Конечный сектор
---------------------------------------------------------------------
1 | 0:00.00 | 3:27.59 | 0 | 15583
2 | 3:27.59 | 0:53.46 | 15584 | 19604
3 | 4:21.30 | 2:50.29 | 19605 | 32383
4 | 7:11.59 | 2:27.21 | 32384 | 43429
5 | 9:39.05 | 2:51.31 | 43430 | 56285
6 | 12:30.36 | 0:57.51 | 56286 | 60611
7 | 13:28.12 | 1:46.27 | 60612 | 68588
8 | 15:14.39 | 3:26.26 | 68589 | 84064
9 | 18:40.65 | 1:56.16 | 84065 | 92780
10 | 20:37.06 | 0:46.11 | 92781 | 96241
11 | 21:23.17 | 2:57.65 | 96242 | 109581
12 | 24:21.07 | 1:33.23 | 109582 | 116579
13 | 25:54.30 | 1:35.48 | 116580 | 123752
14 | 27:30.03 | 1:38.17 | 123753 | 131119
15 | 29:08.20 | 0:48.14 | 131120 | 134733
16 | 29:56.34 | 5:39.05 | 134734 | 160163
17 | 35:35.39 | 3:13.69 | 160164 | 174707
18 | 38:49.33 | 1:08.06 | 174708 | 179813
19 | 39:57.39 | 1:54.42 | 179814 | 188405
20 | 41:52.06 | 1:44.00 | 188406 | 196205
21 | 43:36.06 | 1:39.59 | 196206 | 203689
22 | 45:15.65 | 2:00.26 | 203690 | 212715
23 | 47:16.16 | 2:04.03 | 212716 | 222018
24 | 49:20.19 | 4:08.25 | 222019 | 240643
25 | 53:28.44 | 3:50.27 | 240644 | 257920
26 | 57:18.71 | 1:28.28 | 257921 | 264548
27 | 58:47.24 | 2:49.10 | 264549 | 277233
28 | 61:36.34 | 1:51.20 | 277234 | 285578
29 | 63:27.54 | 1:41.58 | 285579 | 293211
30 | 65:09.37 | 1:15.05 | 293212 | 298841
31 | 66:24.42 | 1:56.29 | 298842 | 307570
32 | 68:20.71 | 3:59.43 | 307571 | 325538

Характеристики диапазона извлечения и сообщения об ошибках

Выбранный диапазон

Имя файла J:\Audio\Знаменные песнопения Древней Руси\CD 10.1 Октай (1-4 гласы)\С.Пичугин - Октай (1-4 гласы).wav

Пиковый уровень 100.0 %
Качество диапазона 100.0 %
CRC теста 7CECDE7F
CRC копии 7CECDE7F
Копирование... OK

Ошибок не произошло

Конец отчёта
Дополнительная информация:
Буклет
pic
Серия выходила примерно в 2004-2005 г.г., какие-то диски, видимо, позже (Октай, Великий пост).
Диски под номерами 21-26 (см. буклет), по всей видимости, не выходили, вместо этого выходила серия "Молебны" (ищите раздачи на этом трекере).
Исполнитель: С.П.Пичугин.
Издательство: Светлояр (Рига).
Диски - самоделки, к тому же сами по себе не очень качественные и старые, поэтому некоторые читаются с трудом и с ошибками. На слух лично я каких-то серьезных помех не заметил, так что ошибки не должны быть очень критичны. Однако, если что - сообщайте, можно попросить другого перевыложить тот или иной диск.
Скорость закачки: раздавать могу преимущественно ночью с динамического ip.
Продолжение серии (диски 11-20) будет выложено в ближайшем будущем.
Выложено здесь - http://pravtor.ru/viewtopic.php?p=44026.
Download

Войдите на сайт, чтобы увидеть полную информацию.

Как скачивать  ·   Правила трекера



Последний раз редактировалось: etrusk (2014-07-09 12:53), всего редактировалось 3 раз(а)
[Профиль]  [ЛС] 

etrusk

Стаж: 11 лет

Сообщений: 128

Russia

post 03-Окт-2010 14:55 (спустя 49 минут)

[Цитировать] 

Не поместившийся отчет по диску 10.2
EAC log CD 2
Exact Audio Copy V0.99 prebeta 5 from 4. May 2009

Отчёт EAC об извлечении, выполненном 24. сентября 2010, 1:18

С.Пичугин / Октай (5-8 гласы)

Дисковод: Optiarc DVD RW AD-7200S Adapter: 5 ID: 0

Режим чтения : Достоверность
Использование точного потока : Да
Отключение кэша аудио : Да
Использование указателей C2 : Нет

Коррекция смещения при чтении : 48
Способность читать области Lead-in и Lead-out : Да
Заполнение пропущенных сэмплов тишиной : Да
Удаление блоков с тишиной в начале и конце : Нет
При вычислениях CRC использовались нулевые сэмплы : Да
Интерфейс : Встроенный Win32-интерфейс для Win NT/2000

Выходной формат : Внутренние WAV-операции
Формат сэмплов : 44.100 Гц; 16 бит; стерео

TOC извлечённого CD

Трек | Старт | Длительность | Начальный сектор | Конечный сектор
---------------------------------------------------------------------
1 | 0:00.00 | 2:39.28 | 0 | 11952
2 | 2:39.28 | 1:29.29 | 11953 | 18656
3 | 4:08.57 | 2:01.44 | 18657 | 27775
4 | 6:10.26 | 2:50.16 | 27776 | 40541
5 | 9:00.42 | 1:39.11 | 40542 | 47977
6 | 10:39.53 | 2:05.30 | 47978 | 57382
7 | 12:45.08 | 1:19.31 | 57383 | 63338
8 | 14:04.39 | 5:26.26 | 63339 | 87814
9 | 19:30.65 | 4:20.01 | 87815 | 107315
10 | 23:50.66 | 2:09.66 | 107316 | 117056
11 | 26:00.57 | 0:51.06 | 117057 | 120887
12 | 26:51.63 | 3:29.04 | 120888 | 136566
13 | 30:20.67 | 1:36.26 | 136567 | 143792
14 | 31:57.18 | 1:24.28 | 143793 | 150120
15 | 33:21.46 | 1:35.38 | 150121 | 157283
16 | 34:57.09 | 0:51.61 | 157284 | 161169
17 | 35:48.70 | 5:18.72 | 161170 | 185091
18 | 41:07.67 | 4:52.43 | 185092 | 207034
19 | 46:00.35 | 2:11.34 | 207035 | 216893
20 | 48:11.69 | 0:39.44 | 216894 | 219862
21 | 48:51.38 | 2:18.00 | 219863 | 230212
22 | 51:09.38 | 1:27.11 | 230213 | 236748
23 | 52:36.49 | 1:37.15 | 236749 | 244038
24 | 54:13.64 | 0:53.38 | 244039 | 248051
25 | 55:07.27 | 1:31.11 | 248052 | 254887
26 | 56:38.38 | 2:44.65 | 254888 | 267252
27 | 59:23.28 | 3:31.72 | 267253 | 283149
28 | 62:55.25 | 1:14.42 | 283150 | 288741
29 | 64:09.67 | 1:32.73 | 288742 | 295714
30 | 65:42.65 | 1:28.00 | 295715 | 302314
31 | 67:10.65 | 2:04.54 | 302315 | 311668
32 | 69:15.44 | 1:28.39 | 311669 | 318307
33 | 70:44.08 | 1:19.71 | 318308 | 324303
34 | 72:04.04 | 5:01.45 | 324304 | 346923
35 | 77:05.49 | 3:54.26 | 346924 | 364499

Характеристики диапазона извлечения и сообщения об ошибках

Выбранный диапазон

Имя файла J:\Audio\Знаменные песнопения Древней Руси\CD 10.2. Октай (5-8 гласы)\С.Пичугин - Октай (5-8 гласы).wav

Подозрительная позиция 1:20:59

Пиковый уровень 100.0 %
Качество диапазона 99.9 %
CRC теста 2CE2F764
CRC копии 2CE2F764
Копирование завершено

Были ошибки

Конец отчёта
На диске были ошибки.

Если скачивается тяжело, то я готов выложить на файлообменниках, пишите ЛС, кому надо.
Также вопрос: делать ли раздачу золотой?
[Профиль]  [ЛС] 

Manul

Стаж: 12 лет

Сообщений: 155

Ussr

post 03-Окт-2010 17:03 (спустя 2 часа 8 минут)

[Цитировать] 

Спаси Господи!
[Профиль]  [ЛС] 

Metalgearzz

Стаж: 12 лет

Сообщений: 11

Russia

post 03-Окт-2010 19:09 (спустя 2 часа 5 минут)

[Цитировать] 

Спасибо! скорости
[Профиль]  [ЛС] 

vasya.sors

Стаж: 11 лет

Сообщений: 19

Germany

post 07-Окт-2010 11:58 (спустя 3 дня)

[Цитировать] 

Спасибо! Ещё бы следующие СД-шки.
[Профиль]  [ЛС] 

Manul

Стаж: 12 лет

Сообщений: 155

Ussr

post 07-Окт-2010 21:05 (спустя 9 часов)

[Цитировать] 

Цитата:

Ещё бы следующие СД-шки.
Вот, какой нетерпеливый.
Написано же

Цитата:

Продолжение серии (диски 11-20) будет выложено в ближайшем будущем.
Рипнуть десяток дисков и оформить раздачу - время нужно. Не у все же его навалом Wink
[Профиль]  [ЛС] 

etrusk

Стаж: 11 лет

Сообщений: 128

Russia

post 08-Окт-2010 17:57 (спустя 20 часов)

[Цитировать] 

vasya.sors
А Вы что, уже всё прослушали? Ну, и скорость! Smile
Хорошо, сегодня вечером выложу (если будут силы, свет и интернет).

Кстати, диски №№1-6 представляют собой приложение к книге Е.Григорьева "Пособие по изучению церковного пения и чтения", кому интересно, её можно найти на сайте "Книжница самарского староверия" http://samstar-biblio.ucoz.ru/load/36-1-0-565.
[Профиль]  [ЛС] 

pink_bandage

Стаж: 10 лет

Сообщений: 2

post 13-Дек-2010 22:55 (спустя 2 месяца 5 дней)

[Цитировать] 

А есть сам учебник?
[Профиль]  [ЛС] 

etrusk

Стаж: 11 лет

Сообщений: 128

Russia

post 14-Дек-2010 01:52 (спустя 2 часа 57 минут)

[Цитировать] 

А ссылка на что?
Или Вам торрент нужен?
[Профиль]  [ЛС] 

pink_bandage

Стаж: 10 лет

Сообщений: 2

post 15-Дек-2010 10:05 (спустя 1 день 8 часов)

[Цитировать] 

Спасибо, изначально не видел ссылку.
[Профиль]  [ЛС] 

Странник1

Стаж: 11 лет

Сообщений: 2307

Russia

post 18-Дек-2010 15:17 (спустя 3 дня)

[Цитировать] 

Спаси Господи!
[Профиль]  [ЛС] 

alextu01

post 28-Янв-2011 23:21 (спустя 1 месяц 10 дней)

[Цитировать] 

Пожалуйста, просидируйте братья и сестры!
 

dr.Sudorgin

Стаж: 11 лет

Сообщений: 99

Откуда: г. Новотроицк

Russia

post 05-Мар-2011 10:00 (спустя 1 месяц 7 дней)

[Цитировать] 

Спаси Господи!
[Профиль]  [ЛС] 

DREVLE.INOK

post 31-Окт-2011 15:10 (спустя 7 месяцев)

[Цитировать] 

как скачать..???
 

Иван 954

Стаж: 7 лет 10 месяцев

Сообщений: 1

Russia

post 04-Дек-2013 20:00 (спустя 2 года 1 месяц)

[Цитировать] 

Большое спасибо за диски.
[Профиль]  [ЛС] 
Показать сообщения:    
Ответить на тему

Текущее время: 21-Окт 16:10

Часовой пояс: GMT + 4



Вы не можете начинать темы
Вы не можете отвечать на сообщения
Вы не можете редактировать свои сообщения
Вы не можете удалять свои сообщения
Вы не можете голосовать в опросах
Вы не можете прикреплять файлы к сообщениям
Вы не можете скачивать файлы