Loading...
Error

(Церковная музыка и церковные хоры (lossless).) Хор Московской Патриархии. Руководитель: Анатолий Гринденко. "Панихида 17 ст". - 1994, APE (tracks+.cue), lossless

Ответить на тему
Статистика раздачи
   
 
Автор Сообщение

СЕРГУЛЕТ

Стаж: 9 лет 3 месяца

Сообщений: 2637

Откуда: LA ROMANA

Dominicanrep

post 03-Дек-2009 18:14

[Цитировать] 

Хор Московской Патриархии. Руководитель: Анатолий Гринденко. "Панихида 17 ст".

pic
Страна: France (Opus 111)
Жанр: Церковная музыка и церковные хоры (lossless).
Год выпуска: 1994
Формат: APE (tracks+.cue)
Битрейт аудио: lossless
Продолжительность: 00:59:46.
Трэклист:
01. The King in Heaven
02. Trisagion. Our Father
03. Alleluia (Thrice)
04. Lord, have mercy (Thrice)
05. The Troparion in tone 8.
06. Psalm 119.
07. Lord, have mercy (Thrice)
08. Psalm 119.
09. Troparion in tone 5.
10. Lord, have mercy (Tthrice)
11. Sessional hymn in tone 5.
12. The Canon for one who is departed. Ode 1. Heirmos.
13. Ode 3. Heirmos.
14. Ode 4. Heirmos.
15. Ode 5. Heirmos.
16. Ode 6. Heirmos.
17. Kontakion. Oikos.
18. Ode 7. Heirmos.
19. Ode 8. Heirmos.
20. Ode 9. Heirmos.
21. Trisagion.
22. The Troparia
23. Lord, have mercy.
24. Memory eternal
25. Trisagion. Our Father
EAC log
Exact Audio Copy V0.99 prebeta 4 from 23. January 2008

EAC extraction logfile from 17. August 2009, 12:06

Russian Orthodox Patriarchate Choir under Anatoli Grindenko / Panikhida 17th. century

Used drive : HL-DT-STDVDRAM GH20NS10 Adapter: 2 ID: 2

Read mode : Secure
Utilize accurate stream : Yes
Defeat audio cache : Yes
Make use of C2 pointers : No

Read offset correction : 667
Overread into Lead-In and Lead-Out : No
Fill up missing offset samples with silence : Yes
Delete leading and trailing silent blocks : No
Null samples used in CRC calculations : Yes
Used interface : Native Win32 interface for Win NT & 2000
Gap handling : Appended to previous track

Used output format : Monkey's Audio Lossless Encoder v3.99 DLL
Sample format : Normal Lossless Compression

TOC of the extracted CD

Track | Start | Length | Start sector | End sector
---------------------------------------------------------
1 | 0:00.00 | 1:34.53 | 0 | 7102
2 | 1:34.53 | 1:04.10 | 7103 | 11912
3 | 2:38.63 | 0:57.15 | 11913 | 16202
4 | 3:36.03 | 0:50.67 | 16203 | 20019
5 | 4:26.70 | 1:12.18 | 20020 | 25437
6 | 5:39.13 | 11:00.10 | 25438 | 74947
7 | 16:39.23 | 0:42.05 | 74948 | 78102
8 | 17:21.28 | 10:53.72 | 78103 | 127149
9 | 28:15.25 | 4:24.40 | 127150 | 146989
10 | 32:39.65 | 0:41.05 | 146990 | 150069
11 | 33:20.70 | 1:06.03 | 150070 | 155022
12 | 34:26.73 | 1:18.35 | 155023 | 160907
13 | 35:45.33 | 1:30.37 | 160908 | 167694
14 | 37:15.70 | 1:40.35 | 167695 | 175229
15 | 38:56.30 | 1:38.28 | 175230 | 182607
16 | 40:34.58 | 1:29.72 | 182608 | 189354
17 | 42:04.55 | 3:49.43 | 189355 | 206572
18 | 45:54.23 | 1:28.10 | 206573 | 213182
19 | 47:22.33 | 1:34.12 | 213183 | 220244
20 | 48:56.45 | 3:47.13 | 220245 | 237282
21 | 52:43.58 | 1:07.47 | 237283 | 242354
22 | 53:51.30 | 2:45.18 | 242355 | 254747
23 | 56:36.48 | 0:48.25 | 254748 | 258372
24 | 57:24.73 | 1:37.17 | 258373 | 265664
25 | 59:02.15 | 0:41.48 | 265665 | 268787

Track 1

Filename F:\Lossless\Russian Orthodox Patriarchate Choir under Anatoli Grindenko - Panikhida 17th. century\01 - The King in Heaven.ape

Pre-gap length 0:00:02.00

Peak level 39.1 %
Track quality 100.0 %
Test CRC BCAA8832
Copy CRC BCAA8832
Copy OK

Track 2

Filename F:\Lossless\Russian Orthodox Patriarchate Choir under Anatoli Grindenko - Panikhida 17th. century\02 - Trisagion. Our Father.ape

Peak level 7.7 %
Track quality 100.0 %
Test CRC EC454AB1
Copy CRC EC454AB1
Copy OK

Track 3

Filename F:\Lossless\Russian Orthodox Patriarchate Choir under Anatoli Grindenko - Panikhida 17th. century\03 - Alleluia (Thrice).ape

Peak level 41.4 %
Track quality 100.0 %
Test CRC 45C112B4
Copy CRC 45C112B4
Copy OK

Track 4

Filename F:\Lossless\Russian Orthodox Patriarchate Choir under Anatoli Grindenko - Panikhida 17th. century\04 - Lord, have mercy (Thrice).ape

Peak level 27.3 %
Track quality 100.0 %
Test CRC 1C827FAD
Copy CRC 1C827FAD
Copy OK

Track 5

Filename F:\Lossless\Russian Orthodox Patriarchate Choir under Anatoli Grindenko - Panikhida 17th. century\05 - The Troparion in tone 8..ape

Peak level 34.5 %
Track quality 100.0 %
Test CRC DDB65B26
Copy CRC DDB65B26
Copy OK

Track 6

Filename F:\Lossless\Russian Orthodox Patriarchate Choir under Anatoli Grindenko - Panikhida 17th. century\06 - Psalm 119..ape

Peak level 41.2 %
Track quality 99.9 %
Test CRC BA9FBB39
Copy CRC BA9FBB39
Copy OK

Track 7

Filename F:\Lossless\Russian Orthodox Patriarchate Choir under Anatoli Grindenko - Panikhida 17th. century\07 - Lord, have mercy (Thrice).ape

Peak level 20.8 %
Track quality 100.0 %
Test CRC FCD6C357
Copy CRC FCD6C357
Copy OK

Track 8

Filename F:\Lossless\Russian Orthodox Patriarchate Choir under Anatoli Grindenko - Panikhida 17th. century\08 - Psalm 119..ape

Peak level 32.9 %
Track quality 100.0 %
Test CRC D1244FB9
Copy CRC D1244FB9
Copy OK

Track 9

Filename F:\Lossless\Russian Orthodox Patriarchate Choir under Anatoli Grindenko - Panikhida 17th. century\09 - Troparion in tone 5..ape

Peak level 44.1 %
Track quality 100.0 %
Test CRC DE3F1516
Copy CRC DE3F1516
Copy OK

Track 10

Filename F:\Lossless\Russian Orthodox Patriarchate Choir under Anatoli Grindenko - Panikhida 17th. century\10 - Lord, have mercy Tthrice).ape

Peak level 20.9 %
Track quality 100.0 %
Test CRC FC8E14FB
Copy CRC FC8E14FB
Copy OK

Track 11

Filename F:\Lossless\Russian Orthodox Patriarchate Choir under Anatoli Grindenko - Panikhida 17th. century\11 - Sessional hymn in tone 5..ape

Peak level 35.2 %
Track quality 100.0 %
Test CRC 76F454AB
Copy CRC 76F454AB
Copy OK

Track 12

Filename F:\Lossless\Russian Orthodox Patriarchate Choir under Anatoli Grindenko - Panikhida 17th. century\12 - The Canon for one who is departed. Ode 1. Heirmos..ape

Peak level 31.6 %
Track quality 100.0 %
Test CRC 7DD0725C
Copy CRC 7DD0725C
Copy OK

Track 13

Filename F:\Lossless\Russian Orthodox Patriarchate Choir under Anatoli Grindenko - Panikhida 17th. century\13 - Ode 3. Heirmos..ape

Peak level 33.4 %
Track quality 100.0 %
Test CRC 8E6E7BB1
Copy CRC 8E6E7BB1
Copy OK

Track 14

Filename F:\Lossless\Russian Orthodox Patriarchate Choir under Anatoli Grindenko - Panikhida 17th. century\14 - Ode 4. Heirmos..ape

Peak level 31.4 %
Track quality 100.0 %
Test CRC C34A3174
Copy CRC C34A3174
Copy OK

Track 15

Filename F:\Lossless\Russian Orthodox Patriarchate Choir under Anatoli Grindenko - Panikhida 17th. century\15 - Ode 5. Heirmos..ape

Peak level 30.2 %
Track quality 100.0 %
Test CRC 0E4E3033
Copy CRC 0E4E3033
Copy OK

Track 16

Filename F:\Lossless\Russian Orthodox Patriarchate Choir under Anatoli Grindenko - Panikhida 17th. century\16 - Ode 6. Heirmos..ape

Peak level 31.6 %
Track quality 100.0 %
Test CRC 78E84F60
Copy CRC 78E84F60
Copy OK

Track 17

Filename F:\Lossless\Russian Orthodox Patriarchate Choir under Anatoli Grindenko - Panikhida 17th. century\17 - Kontakion. Oikos..ape

Peak level 32.4 %
Track quality 100.0 %
Test CRC 09FB3FF8
Copy CRC 09FB3FF8
Copy OK

Track 18

Filename F:\Lossless\Russian Orthodox Patriarchate Choir under Anatoli Grindenko - Panikhida 17th. century\18 - Ode 7. Heirmos..ape

Peak level 28.9 %
Track quality 100.0 %
Test CRC 464310D6
Copy CRC 464310D6
Copy OK

Track 19

Filename F:\Lossless\Russian Orthodox Patriarchate Choir under Anatoli Grindenko - Panikhida 17th. century\19 - Ode 8. Heirmos..ape

Peak level 43.9 %
Track quality 100.0 %
Test CRC 9832680F
Copy CRC 9832680F
Copy OK

Track 20

Filename F:\Lossless\Russian Orthodox Patriarchate Choir under Anatoli Grindenko - Panikhida 17th. century\20 - Ode 9. Heirmos..ape

Peak level 37.0 %
Track quality 100.0 %
Test CRC 697AEE95
Copy CRC 697AEE95
Copy OK

Track 21

Filename F:\Lossless\Russian Orthodox Patriarchate Choir under Anatoli Grindenko - Panikhida 17th. century\21 - Trisagion..ape

Peak level 6.5 %
Track quality 100.0 %
Test CRC 04961306
Copy CRC 04961306
Copy OK

Track 22

Filename F:\Lossless\Russian Orthodox Patriarchate Choir under Anatoli Grindenko - Panikhida 17th. century\22 - The Troparia.ape

Peak level 33.7 %
Track quality 100.0 %
Test CRC A8B7D32E
Copy CRC A8B7D32E
Copy OK

Track 23

Filename F:\Lossless\Russian Orthodox Patriarchate Choir under Anatoli Grindenko - Panikhida 17th. century\23 - Lord, have mercy..ape

Peak level 25.0 %
Track quality 100.0 %
Test CRC E95918AE
Copy CRC E95918AE
Copy OK

Track 24

Filename F:\Lossless\Russian Orthodox Patriarchate Choir under Anatoli Grindenko - Panikhida 17th. century\24 - Memory eternal.ape

Peak level 28.0 %
Track quality 100.0 %
Test CRC 47E515CF
Copy CRC 47E515CF
Copy OK

Track 25

Filename F:\Lossless\Russian Orthodox Patriarchate Choir under Anatoli Grindenko - Panikhida 17th. century\25 - Trisagion. Our Father..ape

Peak level 28.1 %
Track quality 100.0 %
Test CRC E777A536
Copy CRC E777A536
Copy OK

No errors occurred

End of status report
Download

Войдите на сайт, чтобы увидеть полную информацию.

Как скачивать  ·   Правила трекера

[Профиль]  [ЛС] 

Владимир Лухов

Стаж: 7 лет 8 месяцев

Сообщений: 110

Откуда: Саратов

Russia

post 19-Окт-2010 07:39 (спустя 10 месяцев)

[Цитировать] 

Благодарю.
[Профиль]  [ЛС] 

12Gauge

Стаж: 7 лет 1 месяц

Сообщений: 1

Russia

post 09-Апр-2011 22:27 (спустя 5 месяцев 21 день)

[Цитировать] 

Раздайте, пожалуйста!
[Профиль]  [ЛС] 

SVick

Стаж: 9 лет 1 месяц

Сообщений: 5

Russia

post 12-Фев-2018 21:19 (спустя 6 лет 10 месяцев)

[Цитировать] 

Эх, было бы здорово, если кто-нибудь раздал. Подсобите, пожалуйста.
Спаси Господи!
[Профиль]  [ЛС] 

mangealic

Стаж: 3 года 9 месяцев

Сообщений: 73

post 13-Фев-2018 11:24 (спустя 14 часов)

[Цитировать] 

Благодарю.
[Профиль]  [ЛС] 
Показать сообщения:    
Ответить на тему

Текущее время: 23-Май 09:23

Часовой пояс: GMT + 4



Вы не можете начинать темы
Вы не можете отвечать на сообщения
Вы не можете редактировать свои сообщения
Вы не можете удалять свои сообщения
Вы не можете голосовать в опросах
Вы не можете прикреплять файлы к сообщениям
Вы не можете скачивать файлы