Loading...
Error

(Церковная музыка и церковные хоры (lossless)) "Постная Триодь". Регент братского хора Валаамского монастыря иеродиакон Герман (Рябцев). (2CD). - 1999, APE (image + .cue), lossless

Ответить на тему
Статистика раздачи
   
 
Автор Сообщение

СЕРГУЛЕТ

Стаж: 8 лет 8 месяцев

Сообщений: 2640

Откуда: LA ROMANA

Dominicanrep

post 19-Окт-2009 22:00

[Цитировать] 

"Постная Триодь". Регент братского хора Валаамского монастыря иеродиакон Герман (Рябцев).(2CD).

pic
Страна: Россия. Продюсерский центр Игоря Матвиенко.
Жанр: Церковная музыка и церковные хоры (lossless)
Год выпуска: 1999
Формат: APE (image + .cue)
Битрейт аудио: lossless
Продолжительность: 00:54:00+00:59:33
Трэклист:
диск 1
НЕДЕЛЯ МЫТАРЯ И ФАРИСЕЯ
1. 1-я стихира на Господи, воззвах (глас 1)
2. Слава, на Господи, воззвах (глас 8
3. На стиховне, слава (глас 5)
НЕДЕЛЯ БЛУДНОГО СЫНА
4. 2-я стихира на Господи, воззвах (глас 1)
5. Слава, на Господи, воззвах (глас 2)
6. На реках Вавилонских (глас 8
НЕДЕЛЯ МЯСОПУСТНАЯ
7. 2-я стихира на Господи, воззвах (глас 6)
8. Слава, на Господи, воззвах (глас 8
НЕДЕЛЯ СЫРОПУСТНАЯ
9. 1-я стихира на Господи, воззвах (глас 6)
10. Слава, на Господи, воззвах (глас 6)
В ТУ ЖЕ НЕДЕЛЮ НА ВЕЧЕРНЕ
11. 2-я стихира на Господи, воззвах (глас 2)
12. Великий прокимен «Не отврати…» (глас 2)
13. Тропари «Богородице, Дево» (глас 4)
В СЕДМИЧНЫЕ ДНИ СВЯТОГО ПОСТА
14. Аллилуиа и песни троичны (глас 1)
15. Аллилуиа на осмь гласов
16. Светилен троичен (глас 1)
17. Тропари на Часех
18. По 9-ом Часе, блаженны
19. Ирмосы Великого канона св. Андрея Критского (глас 6)

диск 2
1. Господи сил
2. Да исправится молитва моя (глас 2)
3. Ныне силы небесныя
НЕДЕЛЯ 1-я СВЯТОГО ПОСТА
4. Слава, на Господи, воззвах (глас 2)
5. Тропарь Образу (глас 2)
6. Достойно и праведно есть (глас 7)
7. О тебе радуется (глас 8
8. Великий Прокимен «Дал еси…» (глас 8
НЕДЕЛЯ 2-я СВЯТОГО ПОСТА
9. Слава, на Господи, воззвах (глас 6)
10. Тропарь св.Григорию Паламе (глас 8
НЕДЕЛЯ 3-я СВЯТОГО ПОСТА
11. 3-я стихира на Господи, воззвах (глас 5)
12. Слава, на Господи, воззвах (глас 3)
13. Тропарь Кресту (глас 1)
НЕДЕЛЯ 4-я СВЯТОГО ПОСТА
14. Слава, на Господи, воззвах (глас 5)
15. Тропарь прп. Иоанну Лествичнику (глас 1)
16. Повеленное тайно (глас 8
17. Взбранной Воеводе (глас 8
18. Припевы акафиста
НЕДЕЛЯ 5-я СВЯТОГО ПОСТА
19. Слава, на Господи, воззвах (глас 4)
20. Тропарь прп. Марии Египетской (глас 8
СУББОТА ВАИЙ
21. И ныне, на Господи, воззвах (глас 8
22. Тропарь «Общее воскресение» (глас 1)
Дополнительная информация: Православная Церковь отмечает Пасху с величайшей торжественностью. К этому празднику Церковь приготовляет своих чад долго и тщательно с помощью Великого поста. Однако, приготовление начинается даже за три недели до него.

Песнопения Постной Триоди звучат именно в этот период, когда Церковь напоминает нам притчи о мытаре и фарисее, блудном сыне, а также об изгнании прародителей из рая и о Страшном суде, призывая христиан к покаянию. Период этот завершается воспоминанием о воскрешении Христом праведного Лазаря. Этим чудом дается надежда на всеобщее воскресение, и эту надежду прекрасно доносит до нас монашеский хор.
Содержание+Обложки
picpic
EAC log
Exact Audio Copy V0.99 prebeta 5 from 4. May 2009

Отчёт EAC об извлечении, выполненном 18. октября 2009, 10:15

Иеродиакон Герман (Рябцев) / Постная Триодь (1)

Дисковод: ASUS BC-1205PT Adapter: 1 ID: 0

Режим чтения : Достоверность
Использование точного потока : Да
Отключение кэша аудио : Да
Использование указателей C2 : Нет

Коррекция смещения при чтении : 667
Способность читать области Lead-in и Lead-out : Нет
Заполнение пропущенных сэмплов тишиной : Да
Удаление блоков с тишиной в начале и конце : Нет
При вычислениях CRC использовались нулевые сэмплы : Да
Интерфейс : Встроенный Win32-интерфейс для Win NT/2000

Выходной формат : Внутренние WAV-операции
Формат сэмплов : 44.100 Гц; 16 бит; стерео

TOC извлечённого CD

Трек | Старт | Длительность | Начальный сектор | Конечный сектор
---------------------------------------------------------------------
1 | 0:00.00 | 1:06.61 | 0 | 5010
2 | 1:06.61 | 2:51.47 | 5011 | 17882
3 | 3:58.33 | 1:07.54 | 17883 | 22961
4 | 5:06.12 | 2:27.61 | 22962 | 34047
5 | 7:33.73 | 3:24.31 | 34048 | 49378
6 | 10:58.29 | 5:10.72 | 49379 | 72700
7 | 16:09.26 | 2:57.52 | 72701 | 86027
8 | 19:07.03 | 3:29.40 | 86028 | 101742
9 | 22:36.43 | 2:30.44 | 101743 | 113036
10 | 25:07.12 | 2:54.50 | 113037 | 126136
11 | 28:01.62 | 1:49.40 | 126137 | 134351
12 | 29:51.27 | 1:25.01 | 134352 | 140727
13 | 31:16.28 | 1:26.00 | 140728 | 147177
14 | 32:42.28 | 1:35.03 | 147178 | 154305
15 | 34:17.31 | 1:57.42 | 154306 | 163122
16 | 36:14.73 | 1:07.32 | 163123 | 168179
17 | 37:22.30 | 2:19.45 | 168180 | 178649
18 | 39:42.00 | 4:46.65 | 178650 | 200164
19 | 44:28.65 | 9:29.53 | 200165 | 242892

Характеристики диапазона извлечения и сообщения об ошибках

Выбранный диапазон

Имя файла C:\Иеродиакон Герман (Рябцев) - Постная Триодь (1).wav

Пиковый уровень 94.3 %
Качество диапазона 100.0 %
CRC копии 3AC4C8C6
Копирование... OK

Ошибок не произошло

CD2.
Exact Audio Copy V0.99 prebeta 5 from 4. May 2009

Отчёт EAC об извлечении, выполненном 18. октября 2009, 10:30

Иеродиакон Герман (Рябцев) / Постная Триодь (2)

Дисковод: ASUS BC-1205PT Adapter: 1 ID: 0

Режим чтения : Достоверность
Использование точного потока : Да
Отключение кэша аудио : Да
Использование указателей C2 : Нет

Коррекция смещения при чтении : 667
Способность читать области Lead-in и Lead-out : Нет
Заполнение пропущенных сэмплов тишиной : Да
Удаление блоков с тишиной в начале и конце : Нет
При вычислениях CRC использовались нулевые сэмплы : Да
Интерфейс : Встроенный Win32-интерфейс для Win NT/2000

Выходной формат : Внутренние WAV-операции
Формат сэмплов : 44.100 Гц; 16 бит; стерео

TOC извлечённого CD

Трек | Старт | Длительность | Начальный сектор | Конечный сектор
---------------------------------------------------------------------
1 | 0:00.00 | 6:54.66 | 0 | 31115
2 | 6:54.66 | 0:58.53 | 31116 | 35518
3 | 7:53.44 | 5:20.32 | 35519 | 59550
4 | 13:14.01 | 3:51.47 | 59551 | 76922
5 | 17:05.48 | 2:10.57 | 76923 | 86729
6 | 19:16.30 | 8:51.59 | 86730 | 126613
7 | 28:08.14 | 2:32.74 | 126614 | 138087
8 | 30:41.13 | 0:37.01 | 138088 | 140863
9 | 31:18.14 | 1:36.09 | 140864 | 148072
10 | 32:54.23 | 1:27.54 | 148073 | 154651
11 | 34:22.02 | 2:40.08 | 154652 | 166659
12 | 37:02.10 | 3:13.31 | 166660 | 181165
13 | 40:15.41 | 1:20.28 | 181166 | 187193
14 | 41:35.69 | 2:16.39 | 187194 | 197432
15 | 43:52.33 | 1:55.53 | 197433 | 206110
16 | 45:48.11 | 1:50.37 | 206111 | 214397
17 | 47:38.48 | 1:55.58 | 214398 | 223080
18 | 49:34.31 | 0:39.42 | 223081 | 226047
19 | 50:13.73 | 1:58.12 | 226048 | 234909
20 | 52:12.10 | 1:27.53 | 234910 | 241487
21 | 53:39.63 | 4:20.43 | 241488 | 261030
22 | 58:00.31 | 1:30.58 | 261031 | 267838

Характеристики диапазона извлечения и сообщения об ошибках

Выбранный диапазон

Имя файла C:\Иеродиакон Герман (Рябцев) - Постная Триодь (2).wav

Пиковый уровень 99.5 %
Качество диапазона 100.0 %
CRC копии 2A73D6C2
Копирование... OK

Ошибок не произошло
Конец отчёта
Download

Войдите на сайт, чтобы увидеть полную информацию.

Как скачивать  ·   Правила трекера



Последний раз редактировалось: СЕРГУЛЕТ (2010-11-20 13:26), всего редактировалось 1 раз
[Профиль]  [ЛС] 

Странник1

Стаж: 7 лет 10 месяцев

Сообщений: 2308

Russia

post 18-Авг-2010 13:02 (спустя 9 месяцев)

[Цитировать] 

Спасибо!
[Профиль]  [ЛС] 

Feodora

Стаж: 4 года 1 месяц

Сообщений: 4

post 03-Ноя-2013 18:19 (спустя 3 года 2 месяца)

[Цитировать] 

Благодарю.
[Профиль]  [ЛС] 

4x4Runner

Стаж: 4 года 7 месяцев

Сообщений: 15

post 10-Мар-2014 10:10 (спустя 4 месяца 6 дней)

[Цитировать] 

Благодарю
[Профиль]  [ЛС] 

serpantin04

Стаж: 5 лет 11 месяцев

Сообщений: 84

Belarus

post 15-Июн-2014 13:08 (спустя 3 месяца 5 дней)

[Цитировать] 

На следующий год пригодится. Спасибо.
[Профиль]  [ЛС] 

0304mel

Стаж: 4 года 4 месяца

Сообщений: 111

Russia

post 20-Окт-2014 20:28 (спустя 4 месяца 5 дней)

[Цитировать] 

Спаси БОГ!!!
[Профиль]  [ЛС] 

mars1574

Стаж: 3 года 9 месяцев

Сообщений: 33

Russia

post 09-Окт-2017 16:56 (спустя 2 года 11 месяцев)

[Цитировать] 

Благoдарю
[Профиль]  [ЛС] 
Показать сообщения:    
Ответить на тему

Текущее время: 20-Окт 03:36

Часовой пояс: GMT + 4



Вы не можете начинать темы
Вы не можете отвечать на сообщения
Вы не можете редактировать свои сообщения
Вы не можете удалять свои сообщения
Вы не можете голосовать в опросах
Вы не можете прикреплять файлы к сообщениям
Вы не можете скачивать файлы