Loading...
Error

(Церковная музыка и церковные хоры (lossless).) "Псалми". Поет хор монастыря Ковиль г. Нови Сад. Сербия. - 2008, AРЕ (image + .cue), lossless

Ответить на тему
Статистика раздачи
   
 
Автор Сообщение

СЕРГУЛЕТ

Стаж: 10 лет

Сообщений: 2637

Откуда: LA ROMANA

Dominicanrep

post 09-Окт-2009 22:13

[Цитировать] 

"Псалми". Поет хор монастыря Ковиль г. Нови Сад. Сербия.

pic
Страна: Сербия.
Жанр: Церковная музыка и церковные хоры (lossless).
Год выпуска: 2008
Формат: AРЕ (image + .cue)
Битрейт аудио: lossless
Продолжительность: 00:46:53
Трэклист:
1. Псалом 144.
2. Псалом 56.
3. Псалом 95.
4. Кратима.
5. Псалом 83.
6. Псалом 137.
7. Псалом 150.
8. Псалом 117.
EAC log
Exact Audio Copy V0.99 prebeta 5 from 4. May 2009

Отчёт EAC об извлечении, выполненном 9. октября 2009, 19:53

Hor manastira Kovilj / Psalmi

Дисковод: ASUS BC-1205PT Adapter: 1 ID: 0

Режим чтения : Достоверность
Использование точного потока : Да
Отключение кэша аудио : Да
Использование указателей C2 : Нет

Коррекция смещения при чтении : 667
Способность читать области Lead-in и Lead-out : Нет
Заполнение пропущенных сэмплов тишиной : Да
Удаление блоков с тишиной в начале и конце : Нет
При вычислениях CRC использовались нулевые сэмплы : Да
Интерфейс : Встроенный Win32-интерфейс для Win NT/2000

Выходной формат : Внутренние WAV-операции
Формат сэмплов : 44.100 Гц; 16 бит; стерео

TOC извлечённого CD

Трек | Старт | Длительность | Начальный сектор | Конечный сектор
---------------------------------------------------------------------
1 | 0:00.00 | 8:09.39 | 0 | 36713
2 | 8:09.39 | 4:37.28 | 36714 | 57516
3 | 12:46.67 | 8:46.28 | 57517 | 96994
4 | 21:33.20 | 2:56.53 | 96995 | 110247
5 | 24:29.73 | 8:29.33 | 110248 | 148455
6 | 32:59.31 | 4:32.55 | 148456 | 168910
7 | 37:32.11 | 3:50.45 | 168911 | 186205
8 | 41:22.56 | 5:28.56 | 186206 | 210861

Характеристики диапазона извлечения и сообщения об ошибках

Выбранный диапазон

Имя файла C:\Hor manastira Kovilj - Psalmi.wav

Пиковый уровень 96.1 %
Качество диапазона 100.0 %
CRC копии 96B82035
Копирование... OK

Ошибок не произошло
Конец отчёта
Download

Войдите на сайт, чтобы увидеть полную информацию.

Как скачивать  ·   Правила трекера

[Профиль]  [ЛС] 

AndreiSokolov

Стаж: 8 лет 7 месяцев

Сообщений: 11

Russia

post 19-Мар-2014 13:24 (спустя 4 года 5 месяцев)

[Цитировать] 

это тот же диск? - http://pravtor.ru/viewtopic.php?p=66877
[Профиль]  [ЛС] 

СЕРГУЛЕТ

Стаж: 10 лет

Сообщений: 2637

Откуда: LA ROMANA

Dominicanrep

post 20-Мар-2014 10:46 (спустя 21 час)

[Цитировать] 

AndreiSokolov
Да.
[Профиль]  [ЛС] 

basilvp

Стаж: 2 месяца 21 день

Сообщений: 4

Belarus

post 01-Фев-2019 17:02 (спустя 4 года 10 месяцев)

[Цитировать] 

почему то иконка не горит и не нажимается "скачать"
[Профиль]  [ЛС] 
Показать сообщения:    
Ответить на тему

Текущее время: 23-Апр 05:02

Часовой пояс: GMT + 4



Вы не можете начинать темы
Вы не можете отвечать на сообщения
Вы не можете редактировать свои сообщения
Вы не можете удалять свои сообщения
Вы не можете голосовать в опросах
Вы не можете прикреплять файлы к сообщениям
Вы не можете скачивать файлы