Loading...
Error

Иван (Виталий Дудин) [1982, драма, DVB-AVC]

Ответить на тему
Статистика раздачи
   
 
Автор Сообщение

Анатолий Скурин

Стаж: 7 лет 8 месяцев

Сообщений: 177

Russia

post 22-Июн-2020 18:01

[Цитировать] 

Иван
pic
pic
Жанр: драма
Год выпуска: 1982
Продолжительность: 01:09:08
Производство: Беларусьфильм
Автор сценария: Анатолий Кудрявцев
Оператор: Анатолий Зубрицкий
Режиссёр: Виталий Дудин

В ролях: Анатолий Папанов, Галина Макарова, Фёдор Шмаков, Валерий Филатов, Виктор Гоголев, Валерий Бусыгин, Нина Розанцева

Описание: Фильм «Иван» производства киностудии Беларусьфильм рассказывает нам историю о ветеране Великой Отечественной войны, который после войны вернулся в свой родной колхоз. Здесь никто его по отчеству не называет, потому что для всех он - простой дедушка, который всем и везде помогает, ни в чем не отказывая, в результате чего всегда получает нагоняй от своей жены-ворчуньи Марьи (конечно же, Галина Макарова!). И вот из города приходит загадочная повестка из военкомата...
pic
Качество видео:: DVB
Формат видео: MKV

Видео: AVC (H264), 720x576@785x576 (4:3), анаморф, 25 fps, 1990 kbps
Аудио: MP2, 192 kbps, 2 channels, 48 kHz
MediaInfo
[pre]
General
Unique ID : 279399597477984257650821140800086090062 (0xD23267B6286C62701D45542CE63E214E)
Complete name :G\Иван (А.Папанов. 1982)\Иван.mkv
Format : Matroska
Format version : Version 2
File size : 1.08 GiB
Duration : 1 h 9 min
Overall bit rate : 2 226 kb/s
Writing application : Lavf54.63.104
Writing library : Lavf54.63.104

Video
ID : 1
Format : AVC
Format/Info : Advanced Video Codec
Format profile : High@L3
Format settings, CABAC : Yes
Format settings, ReFrames : 4 frames
Codec ID : V_MPEG4/ISO/AVC
Duration : 1 h 9 min
Bit rate : 1 990 kb/s
Width : 720 pixels
Height : 576 pixels
Display aspect ratio : 4:3
Original display aspect ratio : 4:3
Frame rate mode : Constant
Frame rate : 25.000 FPS
Standard : Component
Color space : YUV
Chroma subsampling : 4:2:0
Bit depth : 8 bits
Scan type : Interlaced
Scan type, store method : Separated fields
Scan order : Top Field First
Bits/(Pixel*Frame) : 0.192
Stream size : 984 MiB (89%)
Default : No
Forced : No
Color range : Limited
Color primaries : BT.601 PAL
Transfer characteristics : BT.470 System B, BT.470 System G
Matrix coefficients : BT.601

Audio
ID : 2
Format : MPEG Audio
Format version : Version 1
Format profile : Layer 2
Codec ID : A_MPEG/L2
Codec ID/Hint : MP2
Duration : 1 h 9 min
Bit rate mode : Constant
Bit rate : 192 kb/s
Channel(s) : 2 channels
Sampling rate : 48.0 kHz
Compression mode : Lossy
Stream size : 95.0 MiB (9%)
Language : Russian
Default : Yes
Forced : No
[/pre]
Скриншоты
picpicpicpicpicpicpic
Download

Войдите на сайт, чтобы увидеть полную информацию.

Как скачивать  ·   Правила трекера

[Профиль]  [ЛС] 
Показать сообщения:    
Ответить на тему

Текущее время: 03-Июл 18:44

Часовой пояс: GMT + 4



Вы не можете начинать темы
Вы не можете отвечать на сообщения
Вы не можете редактировать свои сообщения
Вы не можете удалять свои сообщения
Вы не можете голосовать в опросах
Вы не можете прикреплять файлы к сообщениям
Вы не можете скачивать файлы