Loading...
Error

Спецпроект Раскол. Фильм Аркадия Мамонтова (Эфир от 23.12.2018) (Кирилл Ващенко) [2018, Документальный, HDTV 1080i]

Ответить на тему
Статистика раздачи
   
 
Автор Сообщение

vladimirkiev

Стаж: 1 год 6 месяцев

Сообщений: 7

Russia

post 27-Дек-2018 02:37

[Цитировать] 

Спецпроект Раскол. Фильм Аркадия Мамонтова (Эфир от 23.12.2018)

pic
Телекомпания: ВГТРК, Россия 1 HD
Жанр: Документальный

Автор: Аркадий Мамонтов
Режиссер: Кирилл Ващенко

Описание:
Сейчас начался новый крестовый поход на Москву. Американский госдеп, патриарх Варфоломей и Петр Порошенко объединились, чтобы сначала расколоть, а потом уничтожить Православие. Главная цель - это разрушить Церковь, а вместо неё создать псевдорелигиозную организацию. И всё это делается только для того, чтобы нас не было...

Продолжительность: 00:57:11
Качество видео: HDTV
Субтитры: отсутствуют
Семпл

Видео: AVC/H.264, 1920x1080 (16:9), ~8885 Kbps, 25,000 кадров/сек
Аудио: AAC, 2 ch, 446 Kbps, 44.1 kHz
Mediainfo
[pre]
General
Unique ID : 332257749715584958440844987710060732685 (0xF9F683D3513C1F659E10BB71B85DA10D)
Complete name : D:\Спецпроект Раскол. Фильм Аркадия Мамонтова (2018).mkv
Format : Matroska
Format version : Version 4 / Version 2
File size : 3.73 GiB
Duration : 57 min 11 s
Overall bit rate : 9 336 kb/s
Encoded date : UTC 2018-12-26 20:19:26
Writing application : mkvmerge v28.1.0 ('Morning Child') 64-bit
Writing library : libebml v1.3.6 + libmatroska v1.4.9
Cover : Yes
Attachments : cover.png

Video
ID : 1
Format : AVC
Format/Info : Advanced Video Codec
Format profile : High@L4
Format settings : CABAC / 4 Ref Frames
Format settings, CABAC : Yes
Format settings, ReFrames : 4 frames
Codec ID : V_MPEG4/ISO/AVC
Duration : 57 min 11 s
Bit rate : 8 885 kb/s
Width : 1 920 pixels
Height : 1 080 pixels
Display aspect ratio : 16:9
Frame rate mode : Constant
Frame rate : 25.000 FPS
Standard : Component
Color space : YUV
Chroma subsampling : 4:2:0
Bit depth : 8 bits
Scan type : Interlaced
Scan type, store method : Separated fields
Scan order : Top Field First
Bits/(Pixel*Frame) : 0.171
Stream size : 3.55 GiB (95%)
Language : Russian
Default : Yes
Forced : No
Color range : Limited
Color primaries : BT.709
Transfer characteristics : BT.709
Matrix coefficients : BT.709

Audio
ID : 2
Format : AAC
Format/Info : Advanced Audio Codec
Format profile : LC
Codec ID : A_AAC-2
Duration : 57 min 11 s
Bit rate : 446 kb/s
Channel(s) : 2 channels
Channel positions : Front: L R
Sampling rate : 44.1 kHz
Frame rate : 43.066 FPS (1024 SPF)
Compression mode : Lossy
Stream size : 182 MiB (5%)
Language : Russian
Default : Yes
Forced : No
[/pre]
Скриншоты
pic pic pic pic

pic pic pic pic

pic pic pic pic

pic pic pic pic

pic pic pic pic

pic pic pic pic

pic pic pic pic

pic pic pic pic

pic pic pic pic

pic pic pic pic

pic pic pic pic
Download

Войдите на сайт, чтобы увидеть полную информацию.

Как скачивать  ·   Правила трекера

[Профиль]  [ЛС] 

---!!!

Стаж: 3 года 5 месяцев

Сообщений: 934

Russia

post 30-Дек-2018 18:50 (спустя 3 дня)

[Цитировать] 

Благодарю!!!
[Профиль]  [ЛС] 

mangealic

Стаж: 4 года 5 месяцев

Сообщений: 77

post 02-Янв-2019 18:50 (спустя 2 дня 23 часа)

[Цитировать] 

Благодарю !
[Профиль]  [ЛС] 
Показать сообщения:    
Ответить на тему

Текущее время: 16-Янв 22:24

Часовой пояс: GMT + 4



Вы не можете начинать темы
Вы не можете отвечать на сообщения
Вы не можете редактировать свои сообщения
Вы не можете удалять свои сообщения
Вы не можете голосовать в опросах
Вы не можете прикреплять файлы к сообщениям
Вы не можете скачивать файлы