Loading...
Error

Интервью с Путиным / The Putin Interviews [2017 г., Документальный, WEBRip XviD]

Ответить на тему
Статистика раздачи
   
 
Автор Сообщение

Виталий Липатов

Администратор

Стаж: 48 лет

Сообщений: 492

Russia

post 13-Мар-2018 00:22

[Цитировать] 

Интервью с Путиным / The Putin Interviews
pic
Год выхода: 2017
Выпущено: США / Showtime Documentary Films
Жанр: документальный, биография
Продолжительность: ~00:55:00
Перевод: Профессиональный (многоголосый закадровый) Первый канал
Субтитры: нет


Режиссер:
Оливер Стоун / Oliver Stone


В ролях:
Владимир Путин, Оливер Стоун, Сергей Чудинов, Аарон Браун, Дэн Ратер, Збигнев Бжезинский, Хиллари Родэм Клинтон, Михаил Саакашвили, Владимир Жириновский, Виктор Янукович

О фильме:
На протяжении двух лет Владимир Путин и режиссёр ленты встречались в Кремле, в Сочи, в официальной резиденции президента под Москвой. Фильм предлагает зрителю портрет российского лидера во всей его сложности и полноте. В фильме использована хроника ключевых событий, о которых шла речь в интервью.
IMDB | КиноПоиск | Сэмпл |
Качество: HDTVRip [HDTV_1080p]
Формат: AVI
Видео кодек: XviD
Аудио кодек: АС3
Видео: ~704x400 (1.76:1), 25 fps, XviD build 67 ~1638 kbps avg, 0.23 bit/pixel
Аудио: 48 kHz, AC3 Dolby Digital, 2/0 (L,R) ch, ~192 kbps avg[/font][/size]


Скриншоты
pic
picpicpicpic
MediaInfo

Код:

Общее
Полное имя                               : D:\Interviu_s_Putinym_01_Seriya_2017_HDTVRip_by_Dalemake.avi
Формат                                   : AVI
Формат/Информация                        : Audio Video Interleave
Размер файла                             : 739 Мбайт
Продолжительность                        : 56 м.
Общий поток                              : 1840 Кбит/сек
Программа кодирования                    : VirtualDubMod 1.5.10.3 | www.virtualdub-fr.org || (build 2550/release)
Библиотека кодирования                   : VirtualDubMod build 2550/release

Видео
Идентификатор                            : 0
Формат                                   : MPEG-4 Visual
Профиль формата                          : Advanced Simple@L5
Параметр BVOP формата                    : 1
Параметр QPel формата                    : Нет
Параметр GMC формата                     : Без точки перехода
Параметр матрицы формата                 : Выборочная
Идентификатор кодека                     : XVID
Идентификатор кодека/Подсказка           : XviD
Продолжительность                        : 56 м.
Битрейт                                  : 1639 Кбит/сек
Ширина                                   : 704 пикселя
Высота                                   : 400 пикселей
Соотношение сторон                       : 16:9
Частота кадров                           : 25,000 кадров/сек
Цветовое пространство                    : YUV
Субдискретизация насыщенности            : 4:2:0
Битовая глубина                          : 8 бит
Тип развёртки                            : Прогрессивная
Метод сжатия                             : С потерями
Бит/(Пиксели*Кадры)                      : 0.233
Размер потока                            : 658 Мбайт (89%)
Библиотека кодирования                   : XviD 67

Аудио
Идентификатор                            : 1
Формат                                   : AC-3
Формат/Информация                        : Audio Coding 3
Расширение режима                        : CM (complete main)
Параметр Endianness формата              : Big
Идентификатор кодека                     : 2000
Продолжительность                        : 56 м.
Вид битрейта                             : Постоянный
Битрейт                                  : 192 Кбит/сек
Каналы                                   : 2 канала
Расположение каналов                     : Front: L R
Частота                                  : 48,0 КГц
Битовая глубина                          : 16 бит
Метод сжатия                             : С потерями
Размер потока                            : 77,1 Мбайт (10%)
Выравнивание                             : Разделение по промежуткам
Продолжительность промежутка             : 40  мс. (1,00 видеокадр)
Время предзагрузки промежутка            : 500  мс.

Download

Войдите на сайт, чтобы увидеть полную информацию.

Как скачивать  ·   Правила трекера

[Профиль]  [ЛС] 

Skala

Стаж: 8 лет 10 месяцев

Сообщений: 4

Russia

post 13-Мар-2018 18:38 (спустя 18 часов)

[Цитировать] 

Православно!
[Профиль]  [ЛС] 

Д_М_И_Т_Р_И_Й

Стаж: 3 года 10 месяцев

Сообщений: 1

Откуда: Россия

Russia

post 06-Апр-2018 19:38 (спустя 24 дня)

[Цитировать] 

При чём здесь этот иудей?
[Профиль]  [ЛС] 

afara

Стаж: 8 лет

Сообщений: 201

Moldova

post 13-Апр-2018 21:38 (спустя 7 дней)

[Цитировать] 

Блогодарим.

_________________
Господи, Ты - моё сокровище, Ты - моё счастье...
Ты - мой покой, Ты - моя жизнь вечная !
Передаю себя в волю твою.
Сам со мной живи, и Сам говори !

Отдай себя, и Он будет жить с тобою...и говорить будет с тобою...
[Профиль]  [ЛС] 
Показать сообщения:    
Ответить на тему

Текущее время: 25-Сен 19:38

Часовой пояс: GMT + 4



Вы не можете начинать темы
Вы не можете отвечать на сообщения
Вы не можете редактировать свои сообщения
Вы не можете удалять свои сообщения
Вы не можете голосовать в опросах
Вы не можете прикреплять файлы к сообщениям
Вы не можете скачивать файлы