Loading...
Error

Молитвенник земли русской преподобный Сергий Радонежский (Наталья Астахова) [2013 г., Документальный, биография, история, религия, DVD5]

Ответить на тему
Статистика раздачи
   
 
Автор Сообщение

stepan-frunze

Стаж: 8 лет 5 месяцев

Сообщений: 2564

Russia

post 13-Янв-2014 01:09

[Цитировать] 

Молитвенник земли русской преподобный Сергий Радонежский

pic
Год выпуска: 2013
Жанр: Документальный, биография, история, религия
Продолжительность: 00.37.29

Режиссер: Наталья Астахова

Описание: О фильме: Фильм посвящен одному из древнейших монастырей России, основанному в середине XIV века. Основателем его является преподобный Сергий Радонежский чудотворец, дом преподобного Сергия - знаменитая Троице-Сергиева Лавра. Фильм призван раскрыть житие и монашеский подвиг преподобного Сергия Радонежского и отобразить преемственность духовных традиций, заложенных преподобным Сергием, в жизни главного монастыря Русской Православной Церкви и московских духовных школ. Как прежде, так и сейчас русский православный человек стремится хотя бы раз в жизни поклониться святым мощам и испросить молитв преподобного на своем жизненном пути, научиться Вере Православной, молитве, жизни по заповедям Божиим.

Дополнительная информация: Сканы в раздаче!!!

Качество: DVD5
Формат: DVD Video
Видео кодек: MPEG2
Аудио кодек: AC3
Видео: MPEG 2, 720x576 (4:3), 25.000 fps, 7 700 Kbps (0.593 bit/pixel)
Аудио: AC-3, 48.0 KHz, 2 ch, 192 Kbps, CBR

Arrow DVDRip-раздача
скриншоты
pic pic pic pic

pic pic pic pic
MediaInfo
Общее
Полное имя : C:\На раздаче\Молитвенник земли русской преподобный Сергий Радонежский 2013 РУ DVD-5\VIDEO_TS\VIDEO_TS.BUP
Формат : DVD Video
Профиль формата : Menu
Размер файла : 14,0 Кбайт
Режим общего битрейта : Переменный

Видео
Идентификатор : 224 (0xE0)
Формат : MPEG Video
Версия формата : Version 2
Вид битрейта : Переменный
Ширина : 720 пикселей
Высота : 576 пикселей
Соотношение сторон : 4:3
Частота кадров : 25,000 кадров/сек
Стандарт вещания : PAL
Метод сжатия : С потерями

Текст
Формат : RLE
Формат/Информация : Run-length encoding
Битовая глубина : 2 бит

Общее
Полное имя : C:\На раздаче\Молитвенник земли русской преподобный Сергий Радонежский 2013 РУ DVD-5\VIDEO_TS\VIDEO_TS.IFO
Формат : DVD Video
Профиль формата : Menu
Размер файла : 14,0 Кбайт
Режим общего битрейта : Переменный

Видео
Идентификатор : 224 (0xE0)
Формат : MPEG Video
Версия формата : Version 2
Вид битрейта : Переменный
Ширина : 720 пикселей
Высота : 576 пикселей
Соотношение сторон : 4:3
Частота кадров : 25,000 кадров/сек
Стандарт вещания : PAL
Метод сжатия : С потерями

Текст
Формат : RLE
Формат/Информация : Run-length encoding
Битовая глубина : 2 бит

Общее
Полное имя : C:\На раздаче\Молитвенник земли русской преподобный Сергий Радонежский 2013 РУ DVD-5\VIDEO_TS\VIDEO_TS.VOB
Формат : MPEG-PS
Размер файла : 154 Кбайт
Продолжительность : 520 мс.
Общий поток : 2426 Кбит/сек

Видео
Идентификатор : 224 (0xE0)
Формат : MPEG Video
Версия формата : Version 2
Профиль формата : Main@Main
Параметр BVOP формата : Да
Параметр матрицы формата : Выборочная
Продолжительность : 520 мс.
Максимальный битрейт : 2000 Кбит/сек
Ширина : 720 пикселей
Высота : 576 пикселей
Соотношение сторон : 4:3
Частота кадров : 25,000 кадров/сек
Стандарт вещания : PAL
Цветовое пространство : YUV
Субдискретизация насыщенности : 4:2:0
Битовая глубина : 8 бит
Тип развёртки : Чересстрочная
Порядок развёртки : Верхнее поле первое
Метод сжатия : С потерями
Временной код первого кадра : 00:00:00:00
Оригинал временного кода : Group of pictures header

Текст
Идентификатор : 189 (0xBD)-32 (0x20)
Формат : RLE
Формат/Информация : Run-length encoding
Режим смешивания : DVD-Video
Задержка видео : -80 мс.

Меню

Общее
Полное имя : C:\На раздаче\Молитвенник земли русской преподобный Сергий Радонежский 2013 РУ DVD-5\VIDEO_TS\VTS_01_0.BUP
Формат : DVD Video
Профиль формата : Program
Размер файла : 42,0 Кбайт
Продолжительность : 37 м.
Режим общего битрейта : Переменный
Общий поток : 153 бит/сек

Видео
Идентификатор : 224 (0xE0)
Формат : MPEG Video
Версия формата : Version 2
Продолжительность : 37 м.
Вид битрейта : Переменный
Ширина : 720 пикселей
Высота : 576 пикселей
Соотношение сторон : 4:3
Частота кадров : 25,000 кадров/сек
Стандарт вещания : PAL
Метод сжатия : С потерями

Аудио
Идентификатор : 128 (0x80)
Формат : AC-3
Формат/Информация : Audio Coding 3
Продолжительность : 37 м.
Каналы : 2 канала
Частота : 48,0 КГц
Метод сжатия : С потерями

Меню
Продолжительность : 37 м.
00:00:00.000 : Chapter 1
00:05:54.720 : Chapter 2
00:10:42.240 : Chapter 3
00:15:58.080 : Chapter 4
00:20:54.720 : Chapter 5
00:25:51.360 : Chapter 6
00:31:00.480 : Chapter 7
List (Audio) : 0

Общее
Полное имя : C:\На раздаче\Молитвенник земли русской преподобный Сергий Радонежский 2013 РУ DVD-5\VIDEO_TS\VTS_01_0.IFO
Формат : DVD Video
Профиль формата : Program
Размер файла : 42,0 Кбайт
Продолжительность : 37 м.
Режим общего битрейта : Переменный
Общий поток : 153 бит/сек

Видео
Идентификатор : 224 (0xE0)
Формат : MPEG Video
Версия формата : Version 2
Продолжительность : 37 м.
Вид битрейта : Переменный
Ширина : 720 пикселей
Высота : 576 пикселей
Соотношение сторон : 4:3
Частота кадров : 25,000 кадров/сек
Стандарт вещания : PAL
Метод сжатия : С потерями

Аудио
Идентификатор : 128 (0x80)
Формат : AC-3
Формат/Информация : Audio Coding 3
Продолжительность : 37 м.
Каналы : 2 канала
Частота : 48,0 КГц
Метод сжатия : С потерями

Меню
Продолжительность : 37 м.
00:00:00.000 : Chapter 1
00:05:54.720 : Chapter 2
00:10:42.240 : Chapter 3
00:15:58.080 : Chapter 4
00:20:54.720 : Chapter 5
00:25:51.360 : Chapter 6
00:31:00.480 : Chapter 7
List (Audio) : 0

Общее
Полное имя : C:\На раздаче\Молитвенник земли русской преподобный Сергий Радонежский 2013 РУ DVD-5\VIDEO_TS\VTS_01_0.VOB
Формат : MPEG-PS
Размер файла : 22,4 Мбайт
Продолжительность : 28 с.
Режим общего битрейта : Переменный
Общий поток : 6530 Кбит/сек

Видео
Идентификатор : 224 (0xE0)
Формат : MPEG Video
Версия формата : Version 2
Профиль формата : Main@Main
Параметр BVOP формата : Да
Параметр матрицы формата : Выборочная
Параметр GOP формата : M=3, N=12
Продолжительность : 28 с.
Вид битрейта : Переменный
Битрейт : 4864 Кбит/сек
Максимальный битрейт : 8000 Кбит/сек
Ширина : 720 пикселей
Высота : 576 пикселей
Соотношение сторон : 4:3
Частота кадров : 25,000 кадров/сек
Стандарт вещания : PAL
Цветовое пространство : YUV
Субдискретизация насыщенности : 4:2:0
Битовая глубина : 8 бит
Тип развёртки : Чересстрочная
Порядок развёртки : Верхнее поле первое
Метод сжатия : С потерями
Бит/(Пиксели*Кадры) : 0.469
Временной код первого кадра : 00:00:00:00
Оригинал временного кода : Group of pictures header
Размер потока : 16,7 Мбайт (74%)

Аудио
Идентификатор : 189 (0xBD)-160 (0xA0)
Формат : PCM
Параметр Endianness формата : Big
Параметр Sign формата : Signed
Режим смешивания : DVD-Video
Продолжительность : 28 с.
Вид битрейта : Постоянный
Битрейт : 1536 Кбит/сек
Каналы : 2 канала
Частота : 48,0 КГц
Битовая глубина : 16 бит
Размер потока : 5,27 Мбайт (24%)

Текст
Идентификатор : 189 (0xBD)-32 (0x20)
Формат : RLE
Формат/Информация : Run-length encoding
Режим смешивания : DVD-Video

Меню

Общее
Полное имя : C:\На раздаче\Молитвенник земли русской преподобный Сергий Радонежский 2013 РУ DVD-5\VIDEO_TS\VTS_01_1.VOB
Формат : MPEG-PS
Размер файла : 1024 Мбайт
Продолжительность : 22 м.
Режим общего битрейта : Переменный
Общий поток : 6473 Кбит/сек

Видео
Идентификатор : 224 (0xE0)
Формат : MPEG Video
Версия формата : Version 2
Профиль формата : Main@Main
Параметр BVOP формата : Да
Параметр матрицы формата : Выборочная
Параметр GOP формата : M=3, N=12
Продолжительность : 22 м.
Вид битрейта : Переменный
Битрейт : 6152 Кбит/сек
Максимальный битрейт : 7700 Кбит/сек
Ширина : 720 пикселей
Высота : 576 пикселей
Соотношение сторон : 4:3
Частота кадров : 25,000 кадров/сек
Стандарт вещания : PAL
Цветовое пространство : YUV
Субдискретизация насыщенности : 4:2:0
Битовая глубина : 8 бит
Тип развёртки : Чересстрочная
Порядок развёртки : Нижнее поле первое
Метод сжатия : С потерями
Бит/(Пиксели*Кадры) : 0.593
Временной код первого кадра : 00:00:00:00
Оригинал временного кода : Group of pictures header
Размер потока : 973 Мбайт (95%)
Основные цвета : BT.601 PAL
Характеристики трансфера : BT.470 System B, BT.470 System G
Коэффициенты матрицы : BT.601

Аудио
Идентификатор : 189 (0xBD)-128 (0x80)
Формат : AC-3
Формат/Информация : Audio Coding 3
Расширение режима : CM (complete main)
Параметр Endianness формата : Big
Режим смешивания : DVD-Video
Продолжительность : 22 м.
Вид битрейта : Постоянный
Битрейт : 192 Кбит/сек
Каналы : 2 канала
Расположение каналов : Front: L R
Частота : 48,0 КГц
Битовая глубина : 16 бит
Метод сжатия : С потерями
Размер потока : 30,4 Мбайт (3%)

Меню

Общее
Полное имя : C:\На раздаче\Молитвенник земли русской преподобный Сергий Радонежский 2013 РУ DVD-5\VIDEO_TS\VTS_01_2.VOB
Формат : MPEG-PS
Размер файла : 721 Мбайт
Продолжительность : 15 м.
Режим общего битрейта : Переменный
Общий поток : 6549 Кбит/сек

Видео
Идентификатор : 224 (0xE0)
Формат : MPEG Video
Версия формата : Version 2
Профиль формата : Main@Main
Параметр BVOP формата : Да
Параметр матрицы формата : Выборочная
Параметр GOP формата : M=3, N=12
Продолжительность : 15 м.
Вид битрейта : Переменный
Битрейт : 6227 Кбит/сек
Максимальный битрейт : 7700 Кбит/сек
Ширина : 720 пикселей
Высота : 576 пикселей
Соотношение сторон : 4:3
Частота кадров : 25,000 кадров/сек
Стандарт вещания : PAL
Цветовое пространство : YUV
Субдискретизация насыщенности : 4:2:0
Битовая глубина : 8 бит
Тип развёртки : Чересстрочная
Порядок развёртки : Нижнее поле первое
Метод сжатия : С потерями
Бит/(Пиксели*Кадры) : 0.601
Временной код первого кадра : 00:22:07:05
Оригинал временного кода : Group of pictures header
Размер потока : 685 Мбайт (95%)
Основные цвета : BT.601 PAL
Характеристики трансфера : BT.470 System B, BT.470 System G
Коэффициенты матрицы : BT.601

Аудио
Идентификатор : 189 (0xBD)-128 (0x80)
Формат : AC-3
Формат/Информация : Audio Coding 3
Расширение режима : CM (complete main)
Параметр Endianness формата : Big
Режим смешивания : DVD-Video
Продолжительность : 15 м.
Вид битрейта : Постоянный
Битрейт : 192 Кбит/сек
Каналы : 2 канала
Расположение каналов : Front: L R
Частота : 48,0 КГц
Битовая глубина : 16 бит
Метод сжатия : С потерями
Задержка видео : -576 мс.
Размер потока : 21,1 Мбайт (3%)

Меню
DVDinfo
Title: Молитвенник земли русской преподобный Сергий Радонежский 2013 РУ DVD-5
Size: 1.73 Gb ( 1 809 528,00 KBytes ) - DVD-5
Enabled regions: 1, 2, 3, 4, 5, 6, 8

VTS_01 :
Play Length: 00:37:29
Video: PAL 4:3 (720x576) VBR
Audio:
Not specified (Dolby AC3, 2 ch)

* Menus Information *

VIDEO_TS Menu
Video:
PAL 4:3 (720x576) VBR
English Language Unit :
Title Menu

VTS_01 Menu
Video:
PAL 4:3 (720x576) VBR
Audio:
Not specified (LinearPCM, 2 ch)
English Language Unit :
Root Menu
pic
Download

Войдите на сайт, чтобы увидеть полную информацию.

Как скачивать  ·   Правила трекера



Последний раз редактировалось: stepan-frunze (2014-06-20 01:04), всего редактировалось 4 раз(а)
[Профиль]  [ЛС] 

священник Наумов

Стаж: 6 лет 10 месяцев

Сообщений: 29

Russia

post 13-Янв-2014 11:27 (спустя 10 часов)

[Цитировать] 

Благодарю!
[Профиль]  [ЛС] 

stepan-frunze

Стаж: 8 лет 5 месяцев

Сообщений: 2564

Russia

post 21-Апр-2014 00:21 (спустя 3 месяца 7 дней)

[Цитировать] 

pic
[Профиль]  [ЛС] 

lightst

Стаж: 3 года 11 месяцев

Сообщений: 2

Russia

post 24-Апр-2014 13:49 (спустя 3 дня)

[Цитировать] 

Воистину Воскресе!
[Профиль]  [ЛС] 

yayayan

Стаж: 2 года 4 месяца

Сообщений: 4

post 15-Июн-2017 12:39 (спустя 3 года 1 месяц)

[Цитировать] 

Спаси, Господь!
[Профиль]  [ЛС] 
Показать сообщения:    
Ответить на тему

Текущее время: 22-Авг 11:15

Часовой пояс: GMT + 4



Вы не можете начинать темы
Вы не можете отвечать на сообщения
Вы не можете редактировать свои сообщения
Вы не можете удалять свои сообщения
Вы не можете голосовать в опросах
Вы не можете прикреплять файлы к сообщениям
Вы не можете скачивать файлы