Loading...
Error

2 фильма:Надежда и Я была в гостях у смерти (В. Матвеева) [1995 г., документальный, DVD5]

Ответить на тему
Статистика раздачи
   
 
Автор Сообщение

stepan-frunze

Стаж: 8 лет 9 месяцев

Сообщений: 2564

Russia

post 30-Ноя-2013 23:54

[Цитировать] 

2 фильма:Надежда и Я была в гостях у смерти

pic
Год выпуска: 1995
Жанр: документальный
Продолжительность: 33 мин

Режиссер: В. Матвеева

Описание:
Надежда-имя главной героини фильма. Сначала она - преуспевающая, богатая, полная творческих планов, удачливая, жизнерадостная,
не ведающая проблем и припятствий ни в жизни, ни в бизнесе. Но без Бога. Далече от путей спасения. И вот Господь протягивает ей руку, как
Петру на море. Но путь спасения- это путь скорбей и болезней. И она уверенно держится за руку Спасителя.

Дополнительная информация: Сканы обложки и диска в раздаче

Качество: DVD5
Формат: DVD Video
Видео кодек: MPEG2
Аудио кодек: AC3
Видео: MPEG 2, 720x576 (4:3), 25.000 fps, 7 000 Kbps (0.396 bit/pixel)
Аудио: PCM, 48.0 KHz, 2 ch, 1 536 Kbps, CBR
Скриншоты
pic pic pic pic

pic pic pic pic

pic
MediaInfo
Общее
Полное имя : C:\На раздаче\Надежда, Я была в гостях у смерти\VIDEO_TS\VIDEO_TS.BUP
Формат : DVD Video
Профиль формата : Menu
Размер файла : 14,0 Кбайт
Режим общего битрейта : Переменный

Видео
Идентификатор : 224 (0xE0)
Формат : MPEG Video
Версия формата : Version 2
Вид битрейта : Переменный
Ширина : 720 пикселей
Высота : 576 пикселей
Соотношение сторон : 4:3
Частота кадров : 25,000 кадров/сек
Стандарт вещания : PAL
Метод сжатия : С потерями

Аудио
Формат : AC-3
Формат/Информация : Audio Coding 3
Каналы : 2 канала
Частота : 48,0 КГц
Метод сжатия : С потерями

Текст
Формат : RLE
Формат/Информация : Run-length encoding
Битовая глубина : 2 бит

Общее
Полное имя : C:\На раздаче\Надежда, Я была в гостях у смерти\VIDEO_TS\VIDEO_TS.IFO
Формат : DVD Video
Профиль формата : Menu
Размер файла : 14,0 Кбайт
Режим общего битрейта : Переменный

Видео
Идентификатор : 224 (0xE0)
Формат : MPEG Video
Версия формата : Version 2
Вид битрейта : Переменный
Ширина : 720 пикселей
Высота : 576 пикселей
Соотношение сторон : 4:3
Частота кадров : 25,000 кадров/сек
Стандарт вещания : PAL
Метод сжатия : С потерями

Аудио
Формат : AC-3
Формат/Информация : Audio Coding 3
Каналы : 2 канала
Частота : 48,0 КГц
Метод сжатия : С потерями

Текст
Формат : RLE
Формат/Информация : Run-length encoding
Битовая глубина : 2 бит

Общее
Полное имя : C:\На раздаче\Надежда, Я была в гостях у смерти\VIDEO_TS\VIDEO_TS.VOB
Формат : MPEG-PS
Размер файла : 52,6 Мбайт
Продолжительность : 1 м. 0 с.
Общий поток : 7356 Кбит/сек
Библиотека кодирования : encoded by DVD Author PRO Version. 2.1.5.77

Видео
Идентификатор : 224 (0xE0)
Формат : MPEG Video
Версия формата : Version 2
Профиль формата : Main@Main
Параметр BVOP формата : Да
Параметр матрицы формата : Выборочная
Параметр GOP формата : M=3, N=15
Продолжительность : 1 м. 0 с.
Битрейт : 7000 Кбит/сек
Ширина : 720 пикселей
Высота : 576 пикселей
Соотношение сторон : 4:3
Частота кадров : 25,000 кадров/сек
Стандарт вещания : PAL
Цветовое пространство : YUV
Субдискретизация насыщенности : 4:2:0
Битовая глубина : 8 бит
Тип развёртки : Прогрессивная
Метод сжатия : С потерями
Бит/(Пиксели*Кадры) : 0.675
Временной код первого кадра : 00:00:00:00
Оригинал временного кода : Group of pictures header
Размер потока : 50,0 Мбайт (95%)
Библиотека кодирования : encoded by DVD Author PRO Version. 2.1.5.77
Основные цвета : BT.601 PAL
Характеристики трансфера : BT.470 System B, BT.470 System G
Коэффициенты матрицы : BT.601

Аудио
Идентификатор : 189 (0xBD)-128 (0x80)
Формат : AC-3
Формат/Информация : Audio Coding 3
Расширение режима : CM (complete main)
Параметр Endianness формата : Big
Режим смешивания : DVD-Video
Продолжительность : 1 м. 0 с.
Вид битрейта : Постоянный
Битрейт : 224 Кбит/сек
Каналы : 2 канала
Расположение каналов : Front: L R
Частота : 48,0 КГц
Битовая глубина : 16 бит
Метод сжатия : С потерями
Размер потока : 1,60 Мбайт (3%)

Текст
Идентификатор : 189 (0xBD)-32 (0x20)
Формат : RLE
Формат/Информация : Run-length encoding
Режим смешивания : DVD-Video

Меню

Общее
Полное имя : C:\На раздаче\Надежда, Я была в гостях у смерти\VIDEO_TS\VTS_01_0.BUP
Формат : DVD Video
Профиль формата : Program
Размер файла : 30,0 Кбайт
Продолжительность : 33 м.
Режим общего битрейта : Переменный
Общий поток : 123 бит/сек

Видео
Идентификатор : 224 (0xE0)
Формат : MPEG Video
Версия формата : Version 2
Продолжительность : 33 м.
Вид битрейта : Переменный
Ширина : 720 пикселей
Высота : 576 пикселей
Соотношение сторон : 4:3
Частота кадров : 25,000 кадров/сек
Стандарт вещания : PAL
Метод сжатия : С потерями

Аудио
Идентификатор : 0 (0x0)
Формат : PCM
Продолжительность : 33 м.
Каналы : 2 канала
Частота : 48,0 КГц

Меню
Продолжительность : 33 м.
00:00:00.000 : Chapter 1
00:05:15.600 : Chapter 2
00:11:14.400 : Chapter 3
00:14:51.600 : Chapter 4
00:19:34.200 : Chapter 5
00:21:43.200 : Chapter 6
00:24:27.600 : Chapter 7
00:26:56.400 : Chapter 8
00:29:49.800 : Chapter 9
00:32:33.600 : Chapter 10
List (Audio) : 0

Общее
Полное имя : C:\На раздаче\Надежда, Я была в гостях у смерти\VIDEO_TS\VTS_01_0.IFO
Формат : DVD Video
Профиль формата : Program
Размер файла : 30,0 Кбайт
Продолжительность : 33 м.
Режим общего битрейта : Переменный
Общий поток : 123 бит/сек

Видео
Идентификатор : 224 (0xE0)
Формат : MPEG Video
Версия формата : Version 2
Продолжительность : 33 м.
Вид битрейта : Переменный
Ширина : 720 пикселей
Высота : 576 пикселей
Соотношение сторон : 4:3
Частота кадров : 25,000 кадров/сек
Стандарт вещания : PAL
Метод сжатия : С потерями

Аудио
Идентификатор : 0 (0x0)
Формат : PCM
Продолжительность : 33 м.
Каналы : 2 канала
Частота : 48,0 КГц

Меню
Продолжительность : 33 м.
00:00:00.000 : Chapter 1
00:05:15.600 : Chapter 2
00:11:14.400 : Chapter 3
00:14:51.600 : Chapter 4
00:19:34.200 : Chapter 5
00:21:43.200 : Chapter 6
00:24:27.600 : Chapter 7
00:26:56.400 : Chapter 8
00:29:49.800 : Chapter 9
00:32:33.600 : Chapter 10
List (Audio) : 0

Общее
Полное имя : C:\На раздаче\Надежда, Я была в гостях у смерти\VIDEO_TS\VTS_01_1.VOB
Формат : MPEG-PS
Размер файла : 1024 Мбайт
Продолжительность : 24 м.
Режим общего битрейта : Переменный
Общий поток : 5759 Кбит/сек

Видео
Идентификатор : 224 (0xE0)
Формат : MPEG Video
Версия формата : Version 2
Профиль формата : Main@Main
Параметр BVOP формата : Да
Параметр матрицы формата : Выборочная
Параметр GOP формата : M=3, N=15
Продолжительность : 24 м.
Вид битрейта : Переменный
Битрейт : 4109 Кбит/сек
Максимальный битрейт : 7000 Кбит/сек
Ширина : 720 пикселей
Высота : 576 пикселей
Соотношение сторон : 4:3
Частота кадров : 25,000 кадров/сек
Стандарт вещания : PAL
Цветовое пространство : YUV
Субдискретизация насыщенности : 4:2:0
Битовая глубина : 8 бит
Тип развёртки : Чересстрочная
Порядок развёртки : Нижнее поле первое
Метод сжатия : С потерями
Бит/(Пиксели*Кадры) : 0.396
Временной код первого кадра : 00:00:00:00
Оригинал временного кода : Group of pictures header
Размер потока : 730 Мбайт (71%)
Основные цвета : BT.601 PAL
Характеристики трансфера : BT.470 System B, BT.470 System G
Коэффициенты матрицы : BT.601

Аудио
Идентификатор : 189 (0xBD)-160 (0xA0)
Формат : PCM
Параметр Endianness формата : Big
Параметр Sign формата : Signed
Режим смешивания : DVD-Video
Продолжительность : 24 м.
Вид битрейта : Постоянный
Битрейт : 1536 Кбит/сек
Каналы : 2 канала
Частота : 48,0 КГц
Битовая глубина : 16 бит
Размер потока : 273 Мбайт (27%)

Меню

Общее
Полное имя : C:\На раздаче\Надежда, Я была в гостях у смерти\VIDEO_TS\VTS_01_2.VOB
Формат : MPEG-PS
Размер файла : 340 Мбайт
Продолжительность : 8 м. 31 с.
Режим общего битрейта : Переменный
Общий поток : 5576 Кбит/сек

Видео
Идентификатор : 224 (0xE0)
Формат : MPEG Video
Версия формата : Version 2
Профиль формата : Main@Main
Параметр BVOP формата : Да
Параметр матрицы формата : Выборочная
Параметр GOP формата : M=3, N=15
Продолжительность : 8 м. 30 с.
Вид битрейта : Переменный
Битрейт : 3929 Кбит/сек
Максимальный битрейт : 7000 Кбит/сек
Ширина : 720 пикселей
Высота : 576 пикселей
Соотношение сторон : 4:3
Частота кадров : 25,000 кадров/сек
Стандарт вещания : PAL
Цветовое пространство : YUV
Субдискретизация насыщенности : 4:2:0
Битовая глубина : 8 бит
Тип развёртки : Чересстрочная
Порядок развёртки : Нижнее поле первое
Метод сжатия : С потерями
Бит/(Пиксели*Кадры) : 0.379
Временной код первого кадра : 00:24:51:15
Оригинал временного кода : Group of pictures header
Размер потока : 239 Мбайт (70%)
Основные цвета : BT.601 PAL
Характеристики трансфера : BT.470 System B, BT.470 System G
Коэффициенты матрицы : BT.601

Аудио
Идентификатор : 189 (0xBD)-160 (0xA0)
Формат : PCM
Параметр Endianness формата : Big
Параметр Sign формата : Signed
Режим смешивания : DVD-Video
Продолжительность : 8 м. 31 с.
Вид битрейта : Постоянный
Битрейт : 1536 Кбит/сек
Каналы : 2 канала
Частота : 48,0 КГц
Битовая глубина : 16 бит
Задержка видео : -597 мс.
Размер потока : 93,6 Мбайт (28%)

Меню

Общее
Полное имя : C:\На раздаче\Надежда, Я была в гостях у смерти\VIDEO_TS\VTS_02_0.BUP
Формат : DVD Video
Профиль формата : Program
Размер файла : 30,0 Кбайт
Продолжительность : 33 м.
Режим общего битрейта : Переменный
Общий поток : 122 бит/сек

Видео
Идентификатор : 224 (0xE0)
Формат : MPEG Video
Версия формата : Version 2
Продолжительность : 33 м.
Вид битрейта : Переменный
Ширина : 720 пикселей
Высота : 576 пикселей
Соотношение сторон : 4:3
Частота кадров : 25,000 кадров/сек
Стандарт вещания : PAL
Метод сжатия : С потерями

Аудио
Идентификатор : 128 (0x80)
Формат : AC-3
Формат/Информация : Audio Coding 3
Продолжительность : 33 м.
Каналы : 2 канала
Частота : 48,0 КГц
Метод сжатия : С потерями

Меню
Продолжительность : 33 м.
00:00:00.000 : Chapter 1
List (Audio) : 0

Общее
Полное имя : C:\На раздаче\Надежда, Я была в гостях у смерти\VIDEO_TS\VTS_02_0.IFO
Формат : DVD Video
Профиль формата : Program
Размер файла : 30,0 Кбайт
Продолжительность : 33 м.
Режим общего битрейта : Переменный
Общий поток : 122 бит/сек

Видео
Идентификатор : 224 (0xE0)
Формат : MPEG Video
Версия формата : Version 2
Продолжительность : 33 м.
Вид битрейта : Переменный
Ширина : 720 пикселей
Высота : 576 пикселей
Соотношение сторон : 4:3
Частота кадров : 25,000 кадров/сек
Стандарт вещания : PAL
Метод сжатия : С потерями

Аудио
Идентификатор : 128 (0x80)
Формат : AC-3
Формат/Информация : Audio Coding 3
Продолжительность : 33 м.
Каналы : 2 канала
Частота : 48,0 КГц
Метод сжатия : С потерями

Меню
Продолжительность : 33 м.
00:00:00.000 : Chapter 1
List (Audio) : 0

Общее
Полное имя : C:\На раздаче\Надежда, Я была в гостях у смерти\VIDEO_TS\VTS_02_1.VOB
Формат : MPEG-PS
Размер файла : 1024 Мбайт
Продолжительность : 14 м.
Режим общего битрейта : Переменный
Общий поток : 9832 Кбит/сек

Видео
Идентификатор : 224 (0xE0)
Формат : MPEG Video
Версия формата : Version 2
Профиль формата : Main@Main
Параметр BVOP формата : Да
Параметр матрицы формата : Выборочная
Параметр GOP формата : M=3, N=15
Продолжительность : 14 м.
Вид битрейта : Переменный
Битрейт : 9412 Кбит/сек
Максимальный битрейт : 9540 Кбит/сек
Ширина : 720 пикселей
Высота : 576 пикселей
Соотношение сторон : 4:3
Частота кадров : 25,000 кадров/сек
Стандарт вещания : PAL
Цветовое пространство : YUV
Субдискретизация насыщенности : 4:2:0
Битовая глубина : 8 бит
Тип развёртки : Чересстрочная
Порядок развёртки : Нижнее поле первое
Метод сжатия : С потерями
Бит/(Пиксели*Кадры) : 0.908
Временной код первого кадра : 00:00:00:00
Оригинал временного кода : Group of pictures header
Размер потока : 980 Мбайт (96%)
Коэффициенты матрицы : BT.601

Аудио
Идентификатор : 189 (0xBD)-128 (0x80)
Формат : AC-3
Формат/Информация : Audio Coding 3
Расширение режима : CM (complete main)
Параметр Endianness формата : Big
Режим смешивания : DVD-Video
Продолжительность : 14 м.
Вид битрейта : Постоянный
Битрейт : 224 Кбит/сек
Каналы : 2 канала
Расположение каналов : Front: L R
Частота : 48,0 КГц
Битовая глубина : 16 бит
Метод сжатия : С потерями
Размер потока : 23,3 Мбайт (2%)

Меню

Общее
Полное имя : C:\На раздаче\Надежда, Я была в гостях у смерти\VIDEO_TS\VTS_02_2.VOB
Формат : MPEG-PS
Размер файла : 1024 Мбайт
Продолжительность : 14 м.
Режим общего битрейта : Переменный
Общий поток : 9855 Кбит/сек

Видео
Идентификатор : 224 (0xE0)
Формат : MPEG Video
Версия формата : Version 2
Профиль формата : Main@Main
Параметр BVOP формата : Да
Параметр матрицы формата : Выборочная
Параметр GOP формата : M=3, N=15
Продолжительность : 14 м.
Вид битрейта : Переменный
Битрейт : 9435 Кбит/сек
Максимальный битрейт : 9540 Кбит/сек
Ширина : 720 пикселей
Высота : 576 пикселей
Соотношение сторон : 4:3
Частота кадров : 25,000 кадров/сек
Стандарт вещания : PAL
Цветовое пространство : YUV
Субдискретизация насыщенности : 4:2:0
Битовая глубина : 8 бит
Тип развёртки : Чересстрочная
Порядок развёртки : Нижнее поле первое
Метод сжатия : С потерями
Бит/(Пиксели*Кадры) : 0.910
Временной код первого кадра : 00:14:33:20
Оригинал временного кода : Group of pictures header
Размер потока : 980 Мбайт (96%)
Коэффициенты матрицы : BT.601

Аудио
Идентификатор : 189 (0xBD)-128 (0x80)
Формат : AC-3
Формат/Информация : Audio Coding 3
Расширение режима : CM (complete main)
Параметр Endianness формата : Big
Режим смешивания : DVD-Video
Продолжительность : 14 м.
Вид битрейта : Постоянный
Битрейт : 224 Кбит/сек
Каналы : 2 канала
Расположение каналов : Front: L R
Частота : 48,0 КГц
Битовая глубина : 16 бит
Метод сжатия : С потерями
Задержка видео : -504 мс.
Размер потока : 23,3 Мбайт (2%)

Меню

Общее
Полное имя : C:\На раздаче\Надежда, Я была в гостях у смерти\VIDEO_TS\VTS_02_3.VOB
Формат : MPEG-PS
Размер файла : 311 Мбайт
Продолжительность : 4 м. 27 с.
Режим общего битрейта : Переменный
Общий поток : 9751 Кбит/сек

Видео
Идентификатор : 224 (0xE0)
Формат : MPEG Video
Версия формата : Version 2
Профиль формата : Main@Main
Параметр BVOP формата : Да
Параметр матрицы формата : Выборочная
Параметр GOP формата : M=3, N=15
Продолжительность : 4 м. 27 с.
Вид битрейта : Переменный
Битрейт : 9333 Кбит/сек
Максимальный битрейт : 9540 Кбит/сек
Ширина : 720 пикселей
Высота : 576 пикселей
Соотношение сторон : 4:3
Частота кадров : 25,000 кадров/сек
Стандарт вещания : PAL
Цветовое пространство : YUV
Субдискретизация насыщенности : 4:2:0
Битовая глубина : 8 бит
Тип развёртки : Чересстрочная
Порядок развёртки : Нижнее поле первое
Метод сжатия : С потерями
Бит/(Пиксели*Кадры) : 0.900
Временной код первого кадра : 00:29:05:06
Оригинал временного кода : Group of pictures header
Размер потока : 297 Мбайт (96%)
Коэффициенты матрицы : BT.601

Аудио
Идентификатор : 189 (0xBD)-128 (0x80)
Формат : AC-3
Формат/Информация : Audio Coding 3
Расширение режима : CM (complete main)
Параметр Endianness формата : Big
Режим смешивания : DVD-Video
Продолжительность : 4 м. 27 с.
Вид битрейта : Постоянный
Битрейт : 224 Кбит/сек
Каналы : 2 канала
Расположение каналов : Front: L R
Частота : 48,0 КГц
Битовая глубина : 16 бит
Метод сжатия : С потерями
Задержка видео : -456 мс.
Размер потока : 7,14 Мбайт (2%)

Меню
DVDinfo
Title: Надежда, Я была в гостях у смерти
Size: 3.69 Gb ( 3 865 530,00 KBytes ) - DVD-5
Enabled regions: 1, 2, 3, 4, 5, 6, 7, 8

VTS_01 :
Play Length: 00:33:22
Video: PAL 4:3 (720x576) VBR
Audio:
Not specified (LinearPCM, 2 ch)

VTS_02 :
Play Length: 00:33:32
Video: PAL 4:3 (720x576) VBR
Audio:
Not specified (Dolby AC3, 2 ch)

* Menus Information *

VIDEO_TS Menu
Video:
PAL 4:3 (720x576) VBR
Audio:
Not specified (Dolby AC3, 2 ch)
Language Unit :
Title Menu

VTS_01 Menu
Video:
NTSC 4:3 (720x480) VBR
Auto Pan&Scan, Auto Letterboxed
Language Unit :
Chapter (PTT) Menu

VTS_02 Menu
Video:
NTSC 4:3 (720x480) VBR
Auto Pan&Scan, Auto Letterboxed
Language Unit :
Chapter (PTT) Menu
pic
Download

Войдите на сайт, чтобы увидеть полную информацию.

Как скачивать  ·   Правила трекера



Последний раз редактировалось: stepan-frunze (2014-06-20 01:07), всего редактировалось 9 раз(а)
[Профиль]  [ЛС] 

stepan-frunze

Стаж: 8 лет 9 месяцев

Сообщений: 2564

Russia

post 01-Дек-2013 12:43 (спустя 12 часов)

[Цитировать] 

pic


Последний раз редактировалось: stepan-frunze (2014-02-11 23:29), всего редактировалось 2 раз(а)
[Профиль]  [ЛС] 

Or†hodoX

Стаж: 6 лет 1 месяц

Сообщений: 16

Kazakhstan

post 03-Дек-2013 21:46 (спустя 2 дня 9 часов)

[Цитировать] 

А вы у себя в клиенте какой торрент файл запускаете, с трекера скачанный или тот который сами создали и сюда загрузили? Это разные вещи..
[Профиль]  [ЛС] 

stepan-frunze

Стаж: 8 лет 9 месяцев

Сообщений: 2564

Russia

post 03-Дек-2013 22:25 (спустя 39 минут)

[Цитировать] 

picpic
[Профиль]  [ЛС] 

Gala277

Стаж: 1 год 9 месяцев

Сообщений: 123

Russia

post 11-Мар-2016 23:25 (спустя 2 года 3 месяца)

[Цитировать] 

Спасибо ВАМ большое за фильм и труд!
[Профиль]  [ЛС] 

Игорь I

Стаж: 8 лет 7 месяцев

Сообщений: 1682

Russia

post 31-Мар-2017 05:13 (спустя 1 год)

[Цитировать] 

Благодарю
[Профиль]  [ЛС] 

Lenakmr@mail.ru

Стаж: 3 месяца 2 дня

Сообщений: 20

Russia

post 09-Окт-2017 17:16 (спустя 6 месяцев)

[Цитировать] 

благодарю.
[Профиль]  [ЛС] 
Показать сообщения:    
Ответить на тему

Текущее время: 14-Дек 19:14

Часовой пояс: GMT + 4



Вы не можете начинать темы
Вы не можете отвечать на сообщения
Вы не можете редактировать свои сообщения
Вы не можете удалять свои сообщения
Вы не можете голосовать в опросах
Вы не можете прикреплять файлы к сообщениям
Вы не можете скачивать файлы