Loading...
Error

Явленные чудеса (Давид Гиоргобиани) [2002 г., Документальный, DVD5]

Ответить на тему
Статистика раздачи
   
 
Автор Сообщение

stepan-frunze

Стаж: 8 лет 9 месяцев

Сообщений: 2564

Russia

post 27-Окт-2013 16:13

[Цитировать] 

Явленные чудеса

pic
Год выпуска: 2002
Жанр: Документальный
Продолжительность: 00:52:00

Режиссер: Давид Гиоргобиани

Описание: Фильм второй Давида Гиоргобиани о православных чудесах в современном мире.

pic

Дополнительная информация: Полиграфия в раздаче! Не уходите с раздачи.

Качество: DVD5
Формат: DVD Video
Видео кодек: MPEG2
Аудио кодек: AC3
Видео: MPEG 2, 720x576 (4:3), 25.000 fps, 6 000 Kbps (1.316 bit/pixel)
Аудио: PCM, 48.0 KHz, 2 ch, 1 536 Kbps, CBR
Скриншоты
pic pic pic pic

pic pic pic pic

pic
MediaInfo
Общее
Полное имя : C:\На раздаче\Явленные чудеса\VIDEO_TS\VIDEO_TS.BUP
Формат : DVD Video
Профиль формата : Menu
Размер файла : 22,0 Кбайт
Режим общего битрейта : Переменный

Видео
Идентификатор : 224 (0xE0)
Формат : MPEG Video
Версия формата : Version 2
Вид битрейта : Переменный
Ширина : 720 пикселей
Высота : 576 пикселей
Соотношение сторон : 4:3
Частота кадров : 25,000 кадров/сек
Стандарт вещания : PAL
Метод сжатия : С потерями

Аудио
Формат : PCM
Каналы : 2 канала
Частота : 48,0 КГц

Текст
Формат : RLE
Формат/Информация : Run-length encoding
Битовая глубина : 2 бит

Общее
Полное имя : C:\На раздаче\Явленные чудеса\VIDEO_TS\VIDEO_TS.IFO
Формат : DVD Video
Профиль формата : Menu
Размер файла : 22,0 Кбайт
Режим общего битрейта : Переменный

Видео
Идентификатор : 224 (0xE0)
Формат : MPEG Video
Версия формата : Version 2
Вид битрейта : Переменный
Ширина : 720 пикселей
Высота : 576 пикселей
Соотношение сторон : 4:3
Частота кадров : 25,000 кадров/сек
Стандарт вещания : PAL
Метод сжатия : С потерями

Аудио
Формат : PCM
Каналы : 2 канала
Частота : 48,0 КГц

Текст
Формат : RLE
Формат/Информация : Run-length encoding
Битовая глубина : 2 бит

Общее
Полное имя : C:\На раздаче\Явленные чудеса\VIDEO_TS\VIDEO_TS.VOB
Формат : MPEG-PS
Размер файла : 10,8 Мбайт
Продолжительность : 55 с.
Режим общего битрейта : Переменный
Общий поток : 1626 Кбит/сек

Видео
Идентификатор : 224 (0xE0)
Формат : MPEG Video
Версия формата : Version 2
Профиль формата : Main@Main
Параметр BVOP формата : Нет
Параметр матрицы формата : По умолчанию
Продолжительность : 55 с.
Вид битрейта : Переменный
Битрейт : 57,7 Кбит/сек
Максимальный битрейт : 8000 Кбит/сек
Ширина : 720 пикселей
Высота : 576 пикселей
Соотношение сторон : 4:3
Частота кадров : 25,000 кадров/сек
Стандарт вещания : PAL
Цветовое пространство : YUV
Субдискретизация насыщенности : 4:2:0
Битовая глубина : 8 бит
Тип развёртки : Прогрессивная
Порядок развёртки : Верхнее поле первое
Метод сжатия : С потерями
Бит/(Пиксели*Кадры) : 0.006
Временной код первого кадра : 00:00:00:00
Оригинал временного кода : Group of pictures header
Размер потока : 394 Кбайт (4%)
Основные цвета : BT.601 PAL
Характеристики трансфера : BT.470 System B, BT.470 System G
Коэффициенты матрицы : BT.601

Аудио
Идентификатор : 189 (0xBD)-160 (0xA0)
Формат : PCM
Параметр Endianness формата : Big
Параметр Sign формата : Signed
Режим смешивания : DVD-Video
Продолжительность : 55 с.
Вид битрейта : Постоянный
Битрейт : 1536 Кбит/сек
Каналы : 2 канала
Частота : 48,0 КГц
Битовая глубина : 16 бит
Размер потока : 10,2 Мбайт (94%)

Текст
Идентификатор : 189 (0xBD)-32 (0x20)
Формат : RLE
Формат/Информация : Run-length encoding
Режим смешивания : DVD-Video

Меню

Общее
Полное имя : C:\На раздаче\Явленные чудеса\VIDEO_TS\VTS_01_0.BUP
Формат : DVD Video
Профиль формата : Program
Размер файла : 62,0 Кбайт
Продолжительность : 10 м.
Режим общего битрейта : Переменный
Общий поток : 783 бит/сек

Видео
Идентификатор : 224 (0xE0)
Формат : MPEG Video
Версия формата : Version 2
Продолжительность : 10 м.
Вид битрейта : Переменный
Ширина : 720 пикселей
Высота : 576 пикселей
Соотношение сторон : 4:3
Частота кадров : 25,000 кадров/сек
Стандарт вещания : PAL
Метод сжатия : С потерями

Аудио
Идентификатор : 0 (0x0)
Формат : PCM
Продолжительность : 10 м.
Каналы : 2 канала
Частота : 48,0 КГц

Меню #1
Продолжительность : 10 м.
00:00:00.000 : Chapter 1
List (Audio) : 0

Меню #2
Продолжительность : 10 м.
00:00:00.000 : Chapter 1
List (Audio) : 0

Общее
Полное имя : C:\На раздаче\Явленные чудеса\VIDEO_TS\VTS_01_0.IFO
Формат : DVD Video
Профиль формата : Program
Размер файла : 62,0 Кбайт
Продолжительность : 10 м.
Режим общего битрейта : Переменный
Общий поток : 783 бит/сек

Видео
Идентификатор : 224 (0xE0)
Формат : MPEG Video
Версия формата : Version 2
Продолжительность : 10 м.
Вид битрейта : Переменный
Ширина : 720 пикселей
Высота : 576 пикселей
Соотношение сторон : 4:3
Частота кадров : 25,000 кадров/сек
Стандарт вещания : PAL
Метод сжатия : С потерями

Аудио
Идентификатор : 0 (0x0)
Формат : PCM
Продолжительность : 10 м.
Каналы : 2 канала
Частота : 48,0 КГц

Меню #1
Продолжительность : 10 м.
00:00:00.000 : Chapter 1
List (Audio) : 0

Меню #2
Продолжительность : 10 м.
00:00:00.000 : Chapter 1
List (Audio) : 0

Общее
Полное имя : C:\На раздаче\Явленные чудеса\VIDEO_TS\VTS_01_1.VOB
Формат : MPEG-PS
Размер файла : 977 Мбайт
Продолжительность : 8 м. 48 с.
Режим общего битрейта : Переменный
Общий поток : 15,5 Мбит/сек

Видео
Идентификатор : 224 (0xE0)
Формат : MPEG Video
Версия формата : Version 2
Профиль формата : Main@Main
Параметр BVOP формата : Да
Параметр матрицы формата : По умолчанию
Параметр GOP формата : M=3, N=12
Продолжительность : 8 м. 48 с.
Вид битрейта : Переменный
Битрейт : 13,6 Мбит/сек
Максимальный битрейт : 6000 Кбит/сек
Ширина : 720 пикселей
Высота : 576 пикселей
Соотношение сторон : 4:3
Частота кадров : 25,000 кадров/сек
Стандарт вещания : PAL
Цветовое пространство : YUV
Субдискретизация насыщенности : 4:2:0
Битовая глубина : 8 бит
Тип развёртки : Чересстрочная
Порядок развёртки : Нижнее поле первое
Метод сжатия : С потерями
Бит/(Пиксели*Кадры) : 1.316
Временной код первого кадра : 00:00:00:00
Оригинал временного кода : Group of pictures header
Размер потока : 861 Мбайт (88%)
Основные цвета : BT.601 PAL
Характеристики трансфера : BT.470 System B, BT.470 System G
Коэффициенты матрицы : BT.601

Аудио
Идентификатор : 189 (0xBD)-160 (0xA0)
Формат : PCM
Параметр Endianness формата : Big
Параметр Sign формата : Signed
Режим смешивания : DVD-Video
Продолжительность : 8 м. 48 с.
Вид битрейта : Постоянный
Битрейт : 1536 Кбит/сек
Каналы : 2 канала
Частота : 48,0 КГц
Битовая глубина : 16 бит
Размер потока : 96,8 Мбайт (10%)

Меню

Общее
Полное имя : C:\На раздаче\Явленные чудеса\VIDEO_TS\VTS_01_2.VOB
Формат : MPEG-PS
Размер файла : 977 Мбайт
Продолжительность : 4 с. 310 мс.
Режим общего битрейта : Переменный
Общий поток : 1901 Мбит/сек

Видео
Идентификатор : 224 (0xE0)
Формат : MPEG Video
Версия формата : Version 2
Профиль формата : Main@Main
Параметр BVOP формата : Да
Параметр матрицы формата : По умолчанию
Параметр GOP формата : M=3, N=12
Продолжительность : 4 с. 240 мс.
Вид битрейта : Переменный
Битрейт : 1861 Мбит/сек
Максимальный битрейт : 6000 Кбит/сек
Ширина : 720 пикселей
Высота : 576 пикселей
Соотношение сторон : 4:3
Частота кадров : 25,000 кадров/сек
Стандарт вещания : PAL
Цветовое пространство : YUV
Субдискретизация насыщенности : 4:2:0
Битовая глубина : 8 бит
Тип развёртки : Чересстрочная
Порядок развёртки : Нижнее поле первое
Метод сжатия : С потерями
Бит/(Пиксели*Кадры) : 179.534
Временной код первого кадра : 00:08:48:22
Оригинал временного кода : Group of pictures header
Размер потока : 941 Мбайт (96%)
Основные цвета : BT.601 PAL
Характеристики трансфера : BT.470 System B, BT.470 System G
Коэффициенты матрицы : BT.601

Аудио
Идентификатор : 189 (0xBD)-160 (0xA0)
Формат : PCM
Параметр Endianness формата : Big
Параметр Sign формата : Signed
Режим смешивания : DVD-Video
Продолжительность : 4 с. 310 мс.
Вид битрейта : Постоянный
Битрейт : 1536 Кбит/сек
Каналы : 2 канала
Частота : 48,0 КГц
Битовая глубина : 16 бит
Задержка видео : -302 мс.
Размер потока : 808 Кбайт (0%)

Меню

Общее
Полное имя : C:\На раздаче\Явленные чудеса\VIDEO_TS\VTS_01_3.VOB
Формат : MPEG-PS
Размер файла : 667 Мбайт
Продолжительность : 3 м. 27 с.
Режим общего битрейта : Переменный
Общий поток : 27,0 Мбит/сек

Видео
Идентификатор : 224 (0xE0)
Формат : MPEG Video
Версия формата : Version 2
Профиль формата : Main@Main
Параметр BVOP формата : Да
Параметр матрицы формата : По умолчанию
Параметр GOP формата : M=3, N=12
Продолжительность : 3 м. 27 с.
Вид битрейта : Переменный
Битрейт : 24,9 Мбит/сек
Максимальный битрейт : 6000 Кбит/сек
Ширина : 720 пикселей
Высота : 576 пикселей
Соотношение сторон : 4:3
Частота кадров : 25,000 кадров/сек
Стандарт вещания : PAL
Цветовое пространство : YUV
Субдискретизация насыщенности : 4:2:0
Битовая глубина : 8 бит
Тип развёртки : Чересстрочная
Порядок развёртки : Нижнее поле первое
Метод сжатия : С потерями
Бит/(Пиксели*Кадры) : 2.401
Временной код первого кадра : 00:08:53:05
Оригинал временного кода : Group of pictures header
Размер потока : 615 Мбайт (92%)
Основные цвета : BT.601 PAL
Характеристики трансфера : BT.470 System B, BT.470 System G
Коэффициенты матрицы : BT.601

Аудио
Идентификатор : 189 (0xBD)-160 (0xA0)
Формат : PCM
Параметр Endianness формата : Big
Параметр Sign формата : Signed
Режим смешивания : DVD-Video
Продолжительность : 3 м. 27 с.
Вид битрейта : Постоянный
Битрейт : 1536 Кбит/сек
Каналы : 2 канала
Частота : 48,0 КГц
Битовая глубина : 16 бит
Задержка видео : -302 мс.
Размер потока : 38,0 Мбайт (6%)

Меню
DVDinfo
Title: Явленные чудеса
Size: 2.57 Gb ( 2 694 500,00 KBytes ) - DVD-5
Enabled regions: 1, 2, 3, 4, 5, 6, 7, 8

VTS_01 :
Play Length: 00:10:33+00:10:48+00:08:30+00:09:45+00:12:20
Video: PAL 4:3 (720x576) VBR
Audio:
Not specified (LinearPCM, 2 ch)

* Menus Information *

VIDEO_TS Menu
Video:
PAL 4:3 (720x576) VBR
Audio:
Not specified (LinearPCM, 2 ch)
Language Unit :
Title Menu

VTS_01 Menu
Video:
NTSC 4:3 (720x480) VBR
Auto Pan&Scan, Auto Letterboxed
Language Unit :
Root Menu
pic
Download

Войдите на сайт, чтобы увидеть полную информацию.

Как скачивать  ·   Правила трекера



Последний раз редактировалось: stepan-frunze (2014-06-20 01:13), всего редактировалось 6 раз(а)
[Профиль]  [ЛС] 

vika010288

Стаж: 8 лет 5 месяцев

Сообщений: 458

Georgia

post 28-Окт-2013 00:20 (спустя 8 часов)

[Цитировать] 

Спасибо.
[Профиль]  [ЛС] 

stepan-frunze

Стаж: 8 лет 9 месяцев

Сообщений: 2564

Russia

post 03-Мар-2014 00:25 (спустя 4 месяца 6 дней)

[Цитировать] 

picpic
[Профиль]  [ЛС] 
Показать сообщения:    
Ответить на тему

Текущее время: 18-Дек 22:33

Часовой пояс: GMT + 4



Вы не можете начинать темы
Вы не можете отвечать на сообщения
Вы не можете редактировать свои сообщения
Вы не можете удалять свои сообщения
Вы не можете голосовать в опросах
Вы не можете прикреплять файлы к сообщениям
Вы не можете скачивать файлы